Loading...
Error

Русский рейд (Денис Крючков) [2019 г., боевик, криминал, BDRip 1080p]

Статистика раздачи
Размер:  8,98 GB   |    Зарегистрирован:  6 дней   |    Скачан:  9 раз
Сидов:  2  |  0 KB/s  ]   Личеров:  0  |  0 KB/s  ]

* - сиды/пиры с внешних источников

   
 
Автор Сообщение

90ytr90 

08-Апр-2021 08:19

Русский рейд


Название: Русский рейд
Год выхода: 2019
Жанр: Боевик, криминал
Режиссер-постановщик: Денис Крючков
В главных ролях: Иван Котик, Александр Красовский, Илья Антоненко, Владимир Минеев, Никита Кологривый, Софья Озерова, Кирилл Сарычев, Дмитрий Кривочуров, Андрей Семенов, Алексей Максименков, Сергей Подольный, Константин Игнатьев, Владимир Боровиков, Хельга Филиппова, Артём Мельничук, Сергей Легостаев

Описание:
Рейдеры подготовили идеальный план по захвату завода: инсайдеры, подробные чертежи территории, завязки на высшем уровне, компромат на собственников, хакерская поддержка. На их стороне внезапность и прекрасно подготовленная команда головорезов. Но захват оборачивается кровавой ловушкой, ведь банду нападающих ведет человек со своим представлением о целях рейда. Его приоритет - не завод и не деньги, для него главное – справедливость и месть!



Страна: Россия
Студия: Радрагон
Продолжительность: 01:43:15
Озвучивание: Оригинальное | Лицензия

Кодек: x.264
Качество: BDRip 1080p
Видео: MPEG-4 AVC, 9341 Kбит/с, 1920x800, 24.000 кадр/с
Звук #1: Русский (АС3, 6 ch, 640 Кбит/с, 48.0 KHz)
Звук #2: Русский (DTS-HD MA, 6 ch, 2461 Кбит/с, 48.0 KHz)
Субтитры: Aнглийские
Источник: Russkiy.Reyd.2020.1080p.BluRay.x264-RUSTED
General
Unique ID : 181844453948548434822179355557947278064 (0x88CDF7C8D203205AA7929A3FEA4882F0)
Complete name : Russkiy.Reyd.2019.BDRip.1080p.x264.mkv
Format : Matroska
Format version : Version 4
File size : 8.98 GiB
Duration : 1 h 43 min
Overall bit rate mode : Variable
Overall bit rate : 12.5 Mb/s
Encoded date : UTC 2021-04-08 07:42:20
Writing application : mkvmerge v7.1.0 ('Good Love') 64bit built on Jul 27 2014 13:06:55
Writing library : libebml v1.3.0 + libmatroska v1.4.1

Video
ID : 1
Format : AVC
Format/Info : Advanced Video Codec
Format profile : [email protected]
Format settings : CABAC / 5 Ref Frames
Format settings, CABAC : Yes
Format settings, Reference fra : 5 frames
Codec ID : V_MPEG4/ISO/AVC
Duration : 1 h 43 min
Bit rate : 9 341 kb/s
Width : 1 920 pixels
Height : 800 pixels
Display aspect ratio : 2.40:1
Frame rate mode : Constant
Frame rate : 24.000 FPS
Color space : YUV
Chroma subsampling : 4:2:0
Bit depth : 8 bits
Scan type : Progressive
Bits/(Pixel*Frame) : 0.253
Stream size : 6.74 GiB (75%)
Writing library : x264 core 161 r3048 b86ae3c
Encoding settings : cabac=1 / ref=5 / deblock=1:-3:-3 / analyse=0x3:0x133 / me=umh / subme=9 / psy=1 / psy_rd=1.00:0.00 / mixed_ref=1 / me_range=16 / chroma_me=1 / trellis=2 / 8x8dct=1 / cqm=0 / deadzone=21,11 / fast_pskip=0 / chroma_qp_offset=-2 / threads=24 / lookahead_threads=2 / sliced_threads=0 / nr=0 / decimate=0 / interlaced=0 / bluray_compat=0 / constrained_intra=0 / bframes=3 / b_pyramid=2 / b_adapt=2 / b_bias=0 / direct=3 / weightb=1 / open_gop=0 / weightp=2 / keyint=250 / keyint_min=24 / scenecut=40 / intra_refresh=0 / rc=crf / mbtree=0 / crf=17.0 / qcomp=0.60 / qpmin=0 / qpmax=69 / qpstep=4 / ip_ratio=1.40 / pb_ratio=1.30 / aq=3:0.70
Language : Russian
Default : Yes
Forced : No
Color range : Limited
Matrix coefficients : BT.709

Audio #1
ID : 2
Format : AC-3
Format/Info : Audio Coding 3
Commercial name : Dolby Digital
Codec ID : A_AC3
Duration : 1 h 43 min
Bit rate mode : Constant
Bit rate : 640 kb/s
Channel(s) : 6 channels
Channel layout : L R C LFE Ls Rs
Sampling rate : 48.0 kHz
Frame rate : 31.250 FPS (1536 SPF)
Compression mode : Lossy
Stream size : 473 MiB (5%)
Language : Russian
Service kind : Complete Main
Default : Yes
Forced : No

Audio #2
ID : 3
Format : DTS XLL
Format/Info : Digital Theater Systems
Commercial name : DTS-HD Master Audio
Codec ID : A_DTS
Duration : 1 h 43 min
Bit rate mode : Variable
Bit rate : 2 461 kb/s
Channel(s) : 6 channels
Channel layout : C L R Ls Rs LFE
Sampling rate : 48.0 kHz
Frame rate : 93.750 FPS (512 SPF)
Bit depth : 16 bits
Compression mode : Lossless
Stream size : 1.78 GiB (20%)
Language : Russian
Default : No
Forced : No

Text #1
ID : 4
Format : UTF-8
Codec ID : S_TEXT/UTF8
Codec ID/Info : UTF-8 Plain Text
Duration : 1 h 36 min
Bit rate : 34 b/s
Count of elements : 860
Stream size : 24.5 KiB (0%)
Title : English (SRT)
Language : English
Default : No
Forced : No

Text #2
ID : 5
Format : PGS
Muxing mode : zlib
Codec ID : S_HDMV/PGS
Codec ID/Info : Picture based subtitle format used on BDs/HD-DVDs
Duration : 1 h 36 min
Bit rate : 9 679 b/s
Count of elements : 1484
Stream size : 6.66 MiB (0%)
Title : English
Language : English
Default : No
Forced : No

Menu
00:00:00.000 : ru:Chapter 01
00:09:10.167 : ru:Chapter 02
00:18:28.083 : ru:Chapter 03
00:29:22.292 : ru:Chapter 04
00:37:34.792 : ru:Chapter 05
00:45:55.292 : ru:Chapter 06
01:01:05.917 : ru:Chapter 07
01:10:19.917 : ru:Chapter 08
01:23:56.250 : ru:Chapter 09
01:37:38.917 : ru:Chapter 10

Этот торрент недоступен для скачивания без регистрации, однако доступен по публичной magnet-ссылке (источники с публичных трекеров). Перед использованием ссылки прочтите, пожалуйста Пользовательское соглашение, а также как можно дольше оставайтесь на раздаче! Для того, чтобы скачать сам торрент-файл (который видит больше источников), а также для того, чтобы поблагодарить релизера, вам необходимо зарегистрироваться. Если регистрироваться лень - вы можете также попробовать скачать релиз по нашим партнерским ссылкам ниже. Кроме того, зарегистрированным пользователям не показывается всплывающая реклама при скачивании.

[underver.se].t203992.torrent
Трекер: Зарегистрирован   [ 08.04.2021 08:19 ]  

Статус: поглощено (by 90ytr90 at 10.04.2021 12:25)
Поблагодарили: пока никто не поблагодарил...
Тип торрента: публичный - доступные источники с открытых трекеров: 
Размер: 8,98 GB (занимает 2,05 DVDR, для записи нужно 3 болванки DVDR/RW)
 
 
Похожие темы
Форум Тема Автор Торрент Отв. Посл. сооб.
Наше кино [DVDRip, Low-Res HDRip, и т.д.] Русский рейд (Денис Крючков) [2019 г., боевик, криминал, BDRip] [US Transfer] 90ytr90
71 | 3

0 | 75

8

10.04.2021 06:38

Наше кино [DVDRip, Low-Res HDRip, и т.д.] Русский рейд (Денис Крючков) [2019 г., боевик, криминал, BDRip-AVC] [US Transfer] 90ytr90
26 | 0

0 | 66

3

10.04.2021 06:39

Наше кино [DVDRip, Low-Res HDRip, и т.д.] Русский рейд (Денис Крючков) [2019 г., боевик, криминал, BDRip] [US Transfer] 90ytr90
17 | 0

0 | 73

2

10.04.2021 06:40

* Наше кино [DVD / HDDVD / BD / Remux] Русский рейд (Денис Крючков) [2019 г., боевик, криминал, BDRemux 1080p] 90ytr90
10 | 1

0 | 47

2

10.04.2021 06:46

* Наше кино [HDDVDRip / BDRip / WEB-DL / HDTV 1080/720р] Русский рейд (Денис Крючков) [2019 г., боевик, криминал, BDRip 1080p] 90ytr90
30 | 3

0 | 36

1

10.04.2021 06:44

* Наше кино [HDDVDRip / BDRip / WEB-DL / HDTV 1080/720р] Русский рейд (Денис Крючков) [2019 г., боевик, криминал, BDRip 720p] 90ytr90
35 | 1

0 | 35

1

10.04.2021 06:44

Общество, бизнес, политика, история, религия Русский репортер №09 (Май-Июнь) [2019 г., газета, экономика, политика, PDF] RUS Паукан
0 | 0

0 | 379

6

24.05.2019 14:06

Общество, бизнес, политика, история, религия Русский репортер №15 [2019 г., газета, экономика, политика, PDF] RUS Паукан
1 | 0

0 | 356

7

23.08.2019 18:26

Общество, бизнес, политика, история, религия Русский репортер №03 [2018 г., общественно-политическое издание, PDF] RUS Паукан
1 | 0

0 | 708

4

15.02.2018 07:58

Общество, бизнес, политика, история, религия Русский репортер №04 [2018 г., деловой журнал, бизнес, политика, экономика, PDF] RUS Паукан
0 | 0

0 | 766

5

28.02.2018 13:59

10-Апр-2021 12:25

Топик был перенесен из форума Зарубежное кино [HDDVDRip / BDRip / WEB-DL / HDTV 1080/720р] в форум Для поглощенных раздач

Причина переноса: https://ww1.underver.se/viewtopic.php?t=201429
90ytr90
 

Яндекс.Метрика powered by Sphinx


В Н И М А Н И Е
Сайт не распространяет и не хранит электронные версии произведений, а лишь бесплатно и без коммерческой выгоды (не требуя взамен платы,
SMS и т.д.) предоставляет доступ к создаваемому пользователями каталогу ссылок на торрент-файлы, которые содержат только списки хеш-сумм.
Убедительная просьба с жалобами обращаться напрямую к пользователю, разместившему торрент файл.

Вверх