Loading...
Error

Один день в городе. Алма-Ата (Алексей Моторин) [2019 г., документальный, путешествия, HDTV 1080i]

Статистика раздачи
Размер:  1,57 GB   |    Зарегистрирован:  6 дней   |    Скачан:  3 раза

Полного источника не было: 16 часов

Сидов:  0  |  0 KB/s  ]   Личеров:  0  |  0 KB/s  ]

* - сиды/пиры с внешних источников

   
 
Автор Сообщение

ARI71 Пол:Муж

08-Апр-2021 06:21

Один день в городе. Алма-Ата


Год выпуска: 2019
Производство: Россия, ООО ЕМГ
Жанр: документальный, путешествия
Режиссер: Алексей Моторин

Описание: Зоя Бербер на один день отправляется в южную столицу Казахстана - Алма-Ату. Это один из самых любимых у россиян городов-соседей. Зелёный, душевный, самобытный. Укрывшись в ладонях гор, мегаполис сумел сохранить свои традиции. Каток на высоте полторы тысячи метров, яблоки размером с дыню, сокол в руке – всё возможно, если ты в Алма-Ате.

Продолжительность: 00:26:12

Качество видео: HDTV 1080i
Язык озвучки: русский
Формат: ts
Видео: AVC/H.264, 1920x1080, ~7972 Kbps
Аудио: MP2, 2 ch, 192 Kbps
 
Общее
Идентификатор : 1 (0x1)
Полное имя : F:\КИНО\Один день в городе. Алма-Ата.ts
Формат : MPEG-TS
Размер файла : 1,57 Гбайт
Продолжительность : 26 м. 12 с.
Режим общего битрейта : Переменный
Общий поток : 8591 Кбит/сек

Видео
Идентификатор : 211 (0xD3)
Идентификатор меню : 17006 (0x426E)
Формат : AVC
Формат/Информация : Advanced Video Codec
Профиль формата : [email protected]
Настройки формата : CABAC / 3 Ref Frames
Параметр CABAC формата : Да
Параметр RefFrames формата : 3 кадра
Идентификатор кодека : 27
Продолжительность : 26 м. 12 с.
Битрейт : 7972 Кбит/сек
Ширина : 1920 пикселей
Высота : 1080 пикселей
Соотношение сторон : 16:9
Частота кадров : 25,000 кадров/сек
Цветовое пространство : YUV
Субдискретизация насыщенности : 4:2:0
Битовая глубина : 8 бит
Тип развёртки : Чересстрочная
Метод сохранения типа развёртки : Раздельные поля
Порядок развёртки : Верхнее поле первое
Бит/(Пиксели*Кадры) : 0.154
Размер потока : 1,46 Гбайт (93%)
Цветовой диапазон : Limited
Основные цвета : BT.709
Характеристики трансфера : BT.709
Коэффициенты матрицы : BT.709

Аудио
Идентификатор : 221 (0xDD)
Идентификатор меню : 17006 (0x426E)
Формат : MPEG Audio
Версия формата : Version 1
Профиль формата : Layer 2
Идентификатор кодека : 3
Продолжительность : 26 м. 12 с.
Вид битрейта : Постоянный
Битрейт : 192 Кбит/сек
Каналы : 2 канала
Частота : 48,0 КГц
Метод сжатия : С потерями
Задержка видео : -80 мс.
Размер потока : 36,0 Мбайт (2%)
Язык : Russian

Скриншоты:
pic pic pic pic
pic pic pic pic

Этот торрент недоступен для скачивания без регистрации, однако доступен по публичной magnet-ссылке (источники с публичных трекеров). Перед использованием ссылки прочтите, пожалуйста Пользовательское соглашение, а также как можно дольше оставайтесь на раздаче! Для того, чтобы скачать сам торрент-файл (который видит больше источников), а также для того, чтобы поблагодарить релизера, вам необходимо зарегистрироваться. Если регистрироваться лень - вы можете также попробовать скачать релиз по нашим партнерским ссылкам ниже. Кроме того, зарегистрированным пользователям не показывается всплывающая реклама при скачивании.

[underver.se].t203988.torrent
Трекер: Зарегистрирован   [ 08.04.2021 06:21 ]  

Статус: проверено (by ARI71 at 08.04.2021 06:22)
Поблагодарили: пока никто не поблагодарил...
Тип торрента: публичный - доступные источники с открытых трекеров: 
Размер: 1,57 GB (занимает 0,36 DVDR, для записи нужно 1 болванка DVDR/RW)
 
 
Похожие темы
Форум Тема Автор Торрент Отв. Посл. сооб.
Зарубежное кино [DVDRip, Low-Res HDRip, и т.д.] Один день / One Day (Лоне Шерфиг / Lone Scherfig) [2011 г., драма, мелодрама, BDRip] Dub + Original Gaarochi
17 | 0

0 | 1642

31

05.04.2013 14:42

T Зарубежное кино [DVDRip, Low-Res HDRip, и т.д.] Один день конца света / In un giorno la fine / The End? (Даниель Мисисчиа) [2017 г., ужасы, триллер, HDRip] MVO (официальный звук) makkol
1 | 0

0 | 845

20

28.12.2018 11:32

T Зарубежное кино [DVDRip, Low-Res HDRip, и т.д.] Один день Тома / Tom of Your Life (Джереми Склар) [2020 г., драма, WEB-DLRip] DVO (@[email protected]) makkol
2 | 1

0 | 359

7

04.09.2020 21:47

Наше кино [DVDRip, Low-Res HDRip, и т.д.] Один день лета (Александр Игудин) [2018 г., комедия, музыка, мелодрама, WEB-DL 720p] Original (IVI) 90ytr90
2 | 0

0 | 339

4

19.08.2020 10:53

Наше кино [DVDRip, Low-Res HDRip, и т.д.] Один день лета (Александр Игудин) [2018 г., комедия, музыка, мелодрама, WEB-DLRip-AVC] Original (IVI) 90ytr90
1 | 0

0 | 404

7

19.08.2020 10:53

Рыбалка Один день рыбалки с... (Ловля леща на канале) [2015 г., документальный, рыбалка, WEBRip] ARI71
0 | 0

0 | 1113

3

07.07.2017 15:31

Рыбалка Один день рыбалки с... (Ловля леща на фидер с чемпионом России) [2015 г., документальный, рыбалка, WEBRip] ARI71
0 | 0

0 | 2002

4

09.07.2017 17:37

Зарубежное кино [DVD / HDDVD / BD / Remux] Один день / One Day (Лоне Шерфиг) [2011 г., драма, мелодрама, BDRemux 1080p] DUB (Blu-ray) + AVO (С. Визгунов) + Original (Eng) + Sub (Eng/Rus) Ermoha
1 | 0

0 | 166

0

23.03.2021 11:05

T Зарубежное кино [HDDVDRip / BDRip / WEB-DL / HDTV 1080/720р] Один день Тома / Tom of Your Life (Джереми Склар) [2020 г., драма, WEB-DL 1080p] DVO (@[email protected]) makkol
1 | 0

0 | 371

7

04.09.2020 21:51

* Зарубежное кино [HDDVDRip / BDRip / WEB-DL / HDTV 1080/720р] Один день / One Day (Лоне Шерфиг) [2011 г., драма, мелодрама, BDRip 1080p] Dub (Blu-ray) AVO (С. Визгунов) + Original (Eng) + Sub (Rus, Eng) Ermoha
3 | 0

0 | 82

0

24.03.2021 13:35


Яндекс.Метрика powered by Sphinx


В Н И М А Н И Е
Сайт не распространяет и не хранит электронные версии произведений, а лишь бесплатно и без коммерческой выгоды (не требуя взамен платы,
SMS и т.д.) предоставляет доступ к создаваемому пользователями каталогу ссылок на торрент-файлы, которые содержат только списки хеш-сумм.
Убедительная просьба с жалобами обращаться напрямую к пользователю, разместившему торрент файл.

Вверх