Loading...
Error

Английская королева / Our Queen / (серии 2 из 2) / (Майкл Уолдман) [2013 г., документальный, биография, история, DVB] DVО

Статистика раздачи
Размер:  1,94 GB   |    Зарегистрирован:  6 дней   |    Скачан:  3 раза
Сидов:  1  |  0 KB/s  ]   Личеров:  0  |  0 KB/s  ]

* - сиды/пиры с внешних источников

   
 
Автор Сообщение

ARI71 Пол:Муж

08-Апр-2021 06:08

Английская королева / Our Queen


Год выпуска: 2013
Производство: Великобритания, Oxford Film & Television
Жанр: документальный, биография, история
Режиссер: Майкл Уолдман
Участники: Королева Елизавета II, Принц Чарльз, Кейт Миддлтон, Сара Ланкашир, Маргрете II, Камилла Паркер-Боулз, Принц Филипп, Принцесса Анна

Описание: Портрет одной из самых знаменитых женщин на планете. Фильм рассказывает о юбилейном годе правления королевы Елизаветы II. В фильме использованы уникальные интервью с членами королевской семьи, министрами и обслуживающим персоналом. Став во главе государства более 60 лет назад, она остается центром нации, несмотря на бурные политические и социальные перемены, произошедшие за время ее правления. Как ей удается оставаться верной прошлому и успешно адаптироваться к реалиям современной жизни?

Продолжительность: 00:53:19 + 00:50:12

Качество видео: DVB
Перевод: двухголосый закадровый, профессиональный
Формат: mpg
Видео: MPEG-2, 720х[email protected], ~2375 Kbps
Аудио: MP2, 2 ch, 192 Kbps
 
Общее
Полное имя : F:\КИНО\[apreder]Our_Queen(2013)DVB\[apreder]Our_Queen_Pt.2(2013)DVB.mpg
Формат : MPEG-PS
Размер файла : 942 Мбайт
Продолжительность : 50 м. 15 с.
Режим общего битрейта : Переменный
Общий поток : 2620 Кбит/сек

Видео
Общее
Полное имя : F:\КИНО\[apreder]Our_Queen(2013)DVB\[apreder]Our_Queen_Pt.2(2013)DVB.mpg
Формат : MPEG-PS
Размер файла : 942 Мбайт
Продолжительность : 50 м. 15 с.
Режим общего битрейта : Переменный
Общий поток : 2620 Кбит/сек

Видео
Идентификатор : 224 (0xE0)
Формат : MPEG Video
Версия формата : Version 2
Профиль формата : [email protected]
Настройки формата : CustomMatrix / BVOP
Параметр BVOP формата : Да
Параметр матрицы формата : Выборочная
Параметр GOP формата : Variable
Структура изображения : Frame
Продолжительность : 50 м. 15 с.
Вид битрейта : Переменный
Битрейт : 2375 Кбит/сек
Ширина : 720 пикселей
Высота : 576 пикселей
Соотношение сторон : 4:3
Частота кадров : 25,000 кадров/сек
Стандарт вещания : PAL
Цветовое пространство : YUV
Субдискретизация насыщенности : 4:2:0
Битовая глубина : 8 бит
Тип развёртки : Чересстрочная
Порядок развёртки : Верхнее поле первое
Метод сжатия : С потерями
Бит/(Пиксели*Кадры) : 0.229
Временной код первого кадра : 00:00:00:00
Оригинал временного кода : Group of pictures header
GOP, открыто/закрыто : Открыто
GOP, открыто/закрыто на первом кадре : Закрыто
Размер потока : 854 Мбайт (91%)

Аудио
Идентификатор : 192 (0xC0)
Формат : MPEG Audio
Версия формата : Version 1
Профиль формата : Layer 2
Продолжительность : 50 м. 14 с.
Вид битрейта : Постоянный
Битрейт : 192 Кбит/сек
Каналы : 2 канала
Частота : 48,0 КГц
Метод сжатия : С потерями
Размер потока : 69,0 Мбайт (7%)

Скриншоты:
pic pic pic pic
pic pic pic pic

Этот торрент недоступен для скачивания без регистрации, однако доступен по публичной magnet-ссылке (источники с публичных трекеров). Перед использованием ссылки прочтите, пожалуйста Пользовательское соглашение, а также как можно дольше оставайтесь на раздаче! Для того, чтобы скачать сам торрент-файл (который видит больше источников), а также для того, чтобы поблагодарить релизера, вам необходимо зарегистрироваться. Если регистрироваться лень - вы можете также попробовать скачать релиз по нашим партнерским ссылкам ниже. Кроме того, зарегистрированным пользователям не показывается всплывающая реклама при скачивании.

[underver.se].t203987.torrent
Трекер: Зарегистрирован   [ 08.04.2021 06:08 ]  

Статус: проверено (by ARI71 at 08.04.2021 06:10)
Поблагодарили: пока никто не поблагодарил...
Тип торрента: публичный - доступные источники с открытых трекеров: 
Размер: 1,94 GB (занимает 0,44 DVDR, для записи нужно 1 болванка DVDR/RW)
 
 
Похожие темы
Форум Тема Автор Торрент Отв. Посл. сооб.
Обучающая литература Английская грамматика в образах и ассоциациях [2001 г., Учебное пособие, PDF] RUS Saspod
1 | 0

1 | 2570

47

01.09.2016 08:34


Яндекс.Метрика powered by Sphinx


В Н И М А Н И Е
Сайт не распространяет и не хранит электронные версии произведений, а лишь бесплатно и без коммерческой выгоды (не требуя взамен платы,
SMS и т.д.) предоставляет доступ к создаваемому пользователями каталогу ссылок на торрент-файлы, которые содержат только списки хеш-сумм.
Убедительная просьба с жалобами обращаться напрямую к пользователю, разместившему торрент файл.

Вверх