Loading...
Error

Особые игрушки / Sick for Toys (Дэвид Дель Рио) [2018 г., ужасы, BDRip 1080p] MVO (HDRezka Studio) + Original + Sub

Статистика раздачи
Размер:  7,23 GB   |    Зарегистрирован:  6 дней   |    Скачан:  4 раза

Полного источника не было: 14 часов

Сидов:  0  |  0 KB/s  ]   Личеров:  0  |  0 KB/s  ]

* - сиды/пиры с внешних источников

   
 
Автор Сообщение

90ytr90 

08-Апр-2021 05:44

Особые игрушки / Sick for Toys


Год выпуска: 2018
Страна: США
Студия: Delco-Cut Productions, Nine Ten Films
Жанр: Ужасы
Продолжительность: 01:28:55
Перевод: Профессиональный (многоголосый, закадровый) | HDRezka Studio

Режиссёр: Дэвид Дель Рио
В главных ролях: Камилла Монтгомери, Джон Пол Буркхарт, Джастин Ксавьер Смит, Дэвид Ганнинг, Мелани Томпсон, Моргана Шоу, Кэти Уоллес, Пол Т. Тейлор, Лаура Вельта, Йена Магеррамов

Описание: В центре сюжета Рой, который пытается найти своего хорошего друга Джейсона, пропавшего без вести несколько дней назад. Во время поисков он сталкивается с женщиной по имени Эмилия, которая приглашает Роя к себе домой на ужин. Парень соглашается, но даже не догадывается, что её очень странный брат Эдвард будет присутствовать на свидании. Миловидная Эмилия ведет себя очень по-детски и просто обожает Рождество, главным образом потому, что брат каждый год дарит ей новую «игрушку». Вскоре Рой начинает подозревать, что здесь что-то не так...



Качество: BDRip 1080p
Видео: MPEG-4 AVC, 9405 Кбит/с, 1920x1048
Звук 1: AC3, 6 ch, 448 Кбит/с |[img]https://clck.ru/UAffU[/img]
Звук 2: AC3, 6 ch, 640 Кбит/с |[img]https://clck.ru/UAfgH[/img]
Звук 3: DTS, 6 ch, 1152 Кбит/с |[img]https://clck.ru/UAfgH[/img]
Субтитры: Нет.
Общее
Уникальный идентификатор : 6975286860711477419470790555137257241 (0x53F6431B6C067C324B79CFDCA5CAF19)
Полное имя : C:\DownloadsSick.for.Toys_2018_BDRip_1080p_Gateberg.mkv
Формат : Matroska
Версия формата : Version 4
Размер файла : 7,23 Гбайт
Продолжительность : 1 ч. 28 м.
Общий поток : 11,6 Мбит/сек
Название фильма : Sick.for.Toys_2018_BDRip_1080p_Gateberg
Дата кодирования : UTC 2021-04-08 04:27:38
Программа кодирования : mkvmerge v53.0.0 ('Fool's Gold') 64-bit
Библиотека кодирования : libebml v1.4.1 + libmatroska v1.6.2

Видео
Идентификатор : 1
Формат : AVC
Формат/Информация : Advanced Video Codec
Профиль формата : [email protected]
Настройки формата : CABAC / 4 Ref Frames
Параметр CABAC формата : Да
Параметр RefFrames формата : 4 кадра
Идентификатор кодека : V_MPEG4/ISO/AVC
Продолжительность : 1 ч. 28 м.
Битрейт : 9 405 Кбит/сек
Ширина : 1 920 пикселей
Высота : 1 048 пикселей
Соотношение сторон : 1,85:1
Режим частоты кадров : Постоянный
Частота кадров : 23,976 (24000/1001) кадра/сек
Цветовое пространство : YUV
Субдискретизация насыщенности : 4:2:0
Битовая глубина : 8 бит
Тип развёртки : Прогрессивная
Бит/(Пиксели*Кадры) : 0.195
Размер потока : 5,84 Гбайт (81%)
Библиотека кодирования : x264 core 155 r2901 7d0ff22
Настройки программы : cabac=1 / ref=4 / deblock=1:-2:-2 / analyse=0x3:0x113 / me=umh / subme=8 / psy=1 / psy_rd=1.00:0.00 / mixed_ref=1 / me_range=16 / chroma_me=1 / trellis=2 / 8x8dct=1 / cqm=0 / deadzone=21,11 / fast_pskip=1 / chroma_qp_offset=-2 / threads=12 / lookahead_threads=2 / sliced_threads=0 / nr=0 / decimate=1 / interlaced=0 / bluray_compat=0 / constrained_intra=0 / bframes=3 / b_pyramid=2 / b_adapt=2 / b_bias=0 / direct=3 / weightb=1 / open_gop=0 / weightp=2 / keyint=240 / keyint_min=24 / scenecut=40 / intra_refresh=0 / rc_lookahead=50 / rc=2pass / mbtree=1 / bitrate=9405 / ratetol=1.0 / qcomp=0.60 / qpmin=0 / qpmax=69 / qpstep=4 / cplxblur=20.0 / qblur=0.5 / ip_ratio=1.40 / aq=1:1.00
Язык : English
Default : Да
Forced : Нет

Аудио #1
Идентификатор : 2
Формат : AC-3
Формат/Информация : Audio Coding 3
Коммерческое название : Dolby Digital
Идентификатор кодека : A_AC3
Продолжительность : 1 ч. 28 м.
Вид битрейта : Постоянный
Битрейт : 448 Кбит/сек
Каналы : 6 каналов
Channel layout : L R C LFE Ls Rs
Частота : 48,0 КГц
Частота кадров : 31,250 кадров/сек (1536 SPF)
Метод сжатия : С потерями
Размер потока : 285 Мбайт (4%)
Заголовок : HDRezka Studio
Язык : Russian
Service kind : Complete Main
Default : Да
Forced : Нет

Аудио #2
Идентификатор : 3
Формат : AC-3
Формат/Информация : Audio Coding 3
Коммерческое название : Dolby Digital
Идентификатор кодека : A_AC3
Продолжительность : 1 ч. 28 м.
Вид битрейта : Постоянный
Битрейт : 640 Кбит/сек
Каналы : 6 каналов
Channel layout : L R C LFE Ls Rs
Частота : 48,0 КГц
Частота кадров : 31,250 кадров/сек (1536 SPF)
Метод сжатия : С потерями
Размер потока : 407 Мбайт (5%)
Язык : English
Service kind : Complete Main
Default : Нет
Forced : Нет

Аудио #3
Идентификатор : 4
Формат : DTS
Формат/Информация : Digital Theater Systems
Идентификатор кодека : A_DTS
Продолжительность : 1 ч. 28 м.
Вид битрейта : Постоянный
Битрейт : 1 152 Кбит/сек
Каналы : 6 каналов
Channel layout : C L R Ls Rs LFE
Частота : 48,0 КГц
Частота кадров : 93,750 кадра/сек (512 SPF)
Битовая глубина : 24 бит
Метод сжатия : С потерями
Размер потока : 733 Мбайт (10%)
Язык : English
Default : Нет
Forced : Нет

Меню
00:00:00.000 : en:00:00:00.000
00:06:35.103 : en:00:06:35.103
00:15:19.418 : en:00:15:19.418
00:23:53.891 : en:00:23:53.891
00:29:48.787 : en:00:29:48.787
00:36:45.286 : en:00:36:45.286
00:40:02.233 : en:00:40:02.233
00:52:20.179 : en:00:52:20.179
00:56:27.092 : en:00:56:27.092
01:07:48.439 : en:01:07:48.439
01:15:16.303 : en:01:15:16.303
01:25:23.952 : en:01:25:23.952

Этот торрент недоступен для скачивания без регистрации, однако доступен по публичной magnet-ссылке (источники с публичных трекеров). Перед использованием ссылки прочтите, пожалуйста Пользовательское соглашение, а также как можно дольше оставайтесь на раздаче! Для того, чтобы скачать сам торрент-файл (который видит больше источников), а также для того, чтобы поблагодарить релизера, вам необходимо зарегистрироваться. Если регистрироваться лень - вы можете также попробовать скачать релиз по нашим партнерским ссылкам ниже. Кроме того, зарегистрированным пользователям не показывается всплывающая реклама при скачивании.

[underver.se].t203986.torrent
Трекер: Зарегистрирован   [ 08.04.2021 05:44 ]  

Статус: * не проверено
Поблагодарили: пока никто не поблагодарил...
Тип торрента: публичный - доступные источники с открытых трекеров: 
Размер: 7,23 GB (занимает 1,65 DVDR, для записи нужно 2 болванки DVDR/RW)
 
 
Похожие темы
Форум Тема Автор Торрент Отв. Посл. сооб.
T Зарубежное кино [DVDRip, Low-Res HDRip, и т.д.] Особые игрушки / Sick for Toys (Дэвид Дель Рио) [2018 г., ужасы, WEB-DLRip] MVO (Синема УС) makkol
1 | 0

0 | 576

6

08.09.2018 10:43

T Зарубежное кино [DVDRip, Low-Res HDRip, и т.д.] Особые игрушки / Sick for Toys (Дэвид Дель Рио) [2018 г., Ужасы, BDRip-AVC] MVO (HDRezka Studio) + Original + Sub (Ukr, Eng) tiptop
2 | 0

0 | 219

6

08.04.2021 15:48

T Зарубежное кино [HDDVDRip / BDRip / WEB-DL / HDTV 1080/720р] Особые игрушки / Sick for Toys (Дэвид Дель Рио) [2018 г., ужасы, WEB-DL 720p] MVO (Синема УС) makkol
0 | 0

0 | 560

9

08.09.2018 10:47

* Зарубежное кино [HDDVDRip / BDRip / WEB-DL / HDTV 1080/720р] Особые игрушки / Sick for Toys (Дэвид Дель Рио) [2018 г., ужасы, BDRip 720p] MVO (HDRezka Studio) + Original + Sub 90ytr90
14 | 0

0 | 41

2

08.04.2021 03:54


Яндекс.Метрика powered by Sphinx


В Н И М А Н И Е
Сайт не распространяет и не хранит электронные версии произведений, а лишь бесплатно и без коммерческой выгоды (не требуя взамен платы,
SMS и т.д.) предоставляет доступ к создаваемому пользователями каталогу ссылок на торрент-файлы, которые содержат только списки хеш-сумм.
Убедительная просьба с жалобами обращаться напрямую к пользователю, разместившему торрент файл.

Вверх