Loading...
Error

Подольские курсанты (Вадим Шмелев) [2019 г., военный, драма, история, боевик, BDRemux 1080p] [GER Transfer] Original + Sub + hardsub (GER)

Статистика раздачи
Размер:  23,12 GB   |    Зарегистрирован:  6 дней   |    Скачан:  5 раз
Сидов:  6  |  760 KB/s  ]   Личеров:  0  |  0 KB/s  ]

* - сиды/пиры с внешних источников

   
 
Автор Сообщение

90ytr90 

08-Апр-2021 05:42

Подольские курсанты


«Они сражались за Москву»

Название: Подольские курсанты
Год выхода: 2019
Жанр: Военный, драма, история, боевик

Режиссер: Вадим Шмелев
В ролях: Алексей Бардуков, Евгений Дятлов, Сергей Безруков, Любовь Константинова, Артём Губин, Игорь Юдин, Гурам Баблишвили, Дмитрий Соломыкин, Роман Мадянов, Екатерина Редникова

Описание:
Октябрь 1941 года, Подмосковье. Около трёх с половиной тысяч курсантов подольских артиллерийского и пехотного училищ получают приказ занять оборону на Ильинском рубеже и совместно с регулярными частями 43-й армии сдерживать наступление фашистских захватчиков, пока не подойдёт подкрепление. Погибая, вчерашние мальчишки держат оборону от многократно превышающих сил немцев и на двенадцать дней становятся преградой на пути врага к Москве.



Страна: Россия
Студия: Студия "Военфильм"
Продолжительность: 02:16:47
Перевод: Не требуется | Blu-ray GER | Лицензия

Качество: BDRemux 1080p
Исходник: The.Last.Frontier.Die.Schlacht.um.Moskau.2020.GERMAN.DUAL.COMPLETE.BLURAY-UNiVERSUM
Формат: MKV
Кодек: MPEG-4 AVC
Видео: 1920x1080 (16:9), 25 fps, MPEG-4 AVC, 21737 Кbps avg, 0.411 bit/pixel
Звук: DTS-HD MA, 48 kHz, 6 ch, ~1815.00 kbps avg | русский | Blu-ray GER
Звук: AC3, 48 kHz, 6 ch, ~640.00 kbps avg | русский | Blu-ray GER
Субтитры: Русские (форсированные), немецкие (форсированные (хардсаб))

Релиз:
Общее
Уникальный идентификатор : 50294864866421264404826482290429494297 (0x25D6704A061E1787C1F32EDBFA038419)
Полное имя : Podolskiye.Kursanty.2019.GER.1080p.Blu-ray.Remux.AVC.DTS-HD.MA.5.1.MegaPeer.mkv
Формат : Matroska
Версия формата : Version 4
Размер файла : 23,1 Гбайт
Продолжительность : 2 ч. 16 м.
Режим общего битрейта : Переменный
Общий поток : 24,2 Мбит/сек
Название фильма : Подольские курсанты (2019) от MegaPeer
Дата кодирования : UTC 2021-04-08 04:19:15
Программа кодирования : mkvmerge v47.0.0 ('Black Flag') 64-bit
Библиотека кодирования : libebml v1.3.10 + libmatroska v1.5.2
Обложка : Yes
Attachments : cover.jpg

Видео
Идентификатор : 1
Формат : AVC
Формат/Информация : Advanced Video Codec
Профиль формата : [email protected]
Настройки формата : CABAC / 2 Ref Frames
Параметр CABAC формата : Да
Параметр RefFrames формата : 2 кадра
Идентификатор кодека : V_MPEG4/ISO/AVC
Продолжительность : 2 ч. 16 м.
Вид битрейта : Переменный
Битрейт : 21,7 Мбит/сек
Максимальный битрейт : 30,2 Мбит/сек
Ширина : 1 920 пикселей
Высота : 1 080 пикселей
Соотношение сторон : 16:9
Режим частоты кадров : Постоянный
Частота кадров : 25,000 кадров/сек
Цветовое пространство : YUV
Субдискретизация насыщенности : 4:2:0
Битовая глубина : 8 бит
Тип развёртки : MBAFF
Бит/(Пиксели*Кадры) : 0.419
Размер потока : 20,8 Гбайт (90%)
Язык : German
Default : Да
Forced : Нет

Аудио #1
Идентификатор : 2
Формат : DTS XLL
Формат/Информация : Digital Theater Systems
Коммерческое название : DTS-HD Master Audio
Идентификатор кодека : A_DTS
Продолжительность : 2 ч. 16 м.
Вид битрейта : Переменный
Битрейт : 1 815 Кбит/сек
Каналы : 6 каналов
Channel layout : C L R Ls Rs LFE
Частота : 48,0 КГц
Частота кадров : 93,750 кадра/сек (512 SPF)
Битовая глубина : 16 бит
Метод сжатия : Без потерь
Размер потока : 1,73 Гбайт (8%)
Заголовок : Blu-ray GER
Язык : Russian
Default : Да
Forced : Нет

Аудио #2
Идентификатор : 3
Формат : AC-3
Формат/Информация : Audio Coding 3
Коммерческое название : Dolby Digital
Идентификатор кодека : A_AC3
Продолжительность : 2 ч. 16 м.
Вид битрейта : Постоянный
Битрейт : 640 Кбит/сек
Каналы : 6 каналов
Channel layout : L R C LFE Ls Rs
Частота : 48,0 КГц
Частота кадров : 31,250 кадров/сек (1536 SPF)
Метод сжатия : С потерями
Размер потока : 626 Мбайт (3%)
Заголовок : Blu-ray GER
Язык : Russian
Service kind : Complete Main
Default : Нет
Forced : Нет

Текст
Идентификатор : 4
Формат : UTF-8
Идентификатор кодека : S_TEXT/UTF8
Идентификатор кодека/Информация : UTF-8 Plain Text
Продолжительность : 2 ч. 9 м.
Битрейт : 2 бит/сек
Count of elements : 23
Размер потока : 2,16 Кбайт (0%)
Заголовок : Forced
Язык : Russian
Default : Да
Forced : Нет

Меню
00:00:00.000 : :ger: 01
00:07:32.600 : :ger: 02
00:21:03.358 : :ger: 03
00:37:31.800 : :ger: 04
00:46:19.639 : :ger: 05
00:55:55.760 : :ger: 06
01:05:21.559 : :ger: 07
01:18:11.359 : :ger: 08
01:30:16.439 : :ger: 09
01:39:09.920 : :ger: 10
01:51:31.359 : :ger: 11
02:10:22.720 : :ger: 12
02:16:47.158 : :ger: 13

Этот торрент недоступен для скачивания без регистрации, однако доступен по публичной magnet-ссылке (источники с публичных трекеров). Перед использованием ссылки прочтите, пожалуйста Пользовательское соглашение, а также как можно дольше оставайтесь на раздаче! Для того, чтобы скачать сам торрент-файл (который видит больше источников), а также для того, чтобы поблагодарить релизера, вам необходимо зарегистрироваться. Если регистрироваться лень - вы можете также попробовать скачать релиз по нашим партнерским ссылкам ниже. Кроме того, зарегистрированным пользователям не показывается всплывающая реклама при скачивании.

[underver.se].t203985.torrent
Трекер: Зарегистрирован   [ 08.04.2021 05:42 ]  

Статус: * не проверено
Поблагодарили: пока никто не поблагодарил...
Тип торрента: публичный - доступные источники с открытых трекеров: 
Размер: 23,12 GB (занимает 5,28 DVDR, для записи нужно 6 болванок DVDR/RW)
 
 
Похожие темы
Форум Тема Автор Торрент Отв. Посл. сооб.
Наше кино [DVDRip, Low-Res HDRip, и т.д.] Подольские курсанты (Вадим Шмелев) [2019 г., военный, драма, история, боевик, WEB-DLRip] Original (iTunes) 90ytr90
54 | 0

0 | 442

19

10.12.2020 20:12

Наше кино [DVDRip, Low-Res HDRip, и т.д.] Подольские курсанты (Вадим Шмелев) [2019 г., военный, драма, история, боевик, WEB-DLRip] Original (iTunes) 90ytr90
912 | 7

0 | 737

60

10.12.2020 20:36

Наше кино [DVDRip, Low-Res HDRip, и т.д.] Подольские курсанты (Вадим Шмелев) [2019 г., военный, драма, история, боевик, WEB-DLRip-AVC] Original (iTunes) 90ytr90
65 | 0

0 | 667

39

25.12.2020 16:25

* Наше кино [DVDRip, Low-Res HDRip, и т.д.] Подольские курсанты (Вадим Шмелев) [2019 г., военный, драма, история, боевик, BDRip] [GER Transfer] Original + Sub + hardsub (GER) 90ytr90
125 | 5

0 | 44

6

08.04.2021 05:41

* Наше кино [DVDRip, Low-Res HDRip, и т.д.] Подольские курсанты (Вадим Шмелев) [2019 г., военный, драма, история, боевик, BDRip] [GER Transfer] Original + Sub + hardsub (GER) 90ytr90
43 | 2

0 | 45

2

08.04.2021 05:41

* Наше кино [DVDRip, Low-Res HDRip, и т.д.] Подольские курсанты (Вадим Шмелев) [2019 г., военный, драма, история, боевик, BDRip-AVC] [GER Transfer] Original + Sub + hardsub (GER) 90ytr90
29 | 3

0 | 67

6

08.04.2021 12:40

* Наше кино [DVDRip, Low-Res HDRip, и т.д.] Подольские курсанты (Вадим Шмелев) [2019 г., военный, драма, история, боевик, BDRip] [GER Transfer] Original + hardsub (Rus, Ger) 90ytr90
31 | 2

0 | 32

2

11.04.2021 20:07

* Наше кино [DVDRip, Low-Res HDRip, и т.д.] Подольские курсанты (Вадим Шмелев) [2019 г., военный, драма, история, боевик, BDRip] [GER Transfer] Original + hardsub (Rus, Ger) 90ytr90
38 | 5

1 | 38

0

11.04.2021 20:22

Наше кино [HDDVDRip / BDRip / WEB-DL / HDTV 1080/720р] Подольские курсанты (Вадим Шмелев) [2019 г., военный, драма, история, боевик, WEB-DL 1080p] Original (iTunes) 90ytr90
1472 | 4

0 | 770

90

10.12.2020 20:12

Наше кино [HDDVDRip / BDRip / WEB-DL / HDTV 1080/720р] Подольские курсанты (Вадим Шмелев) [2019 г., военный, драма, история, боевик, WEB-DLRip 720p] Original (iTunes) 90ytr90
166 | 0

0 | 622

29

25.12.2020 16:23


Яндекс.Метрика powered by Sphinx


В Н И М А Н И Е
Сайт не распространяет и не хранит электронные версии произведений, а лишь бесплатно и без коммерческой выгоды (не требуя взамен платы,
SMS и т.д.) предоставляет доступ к создаваемому пользователями каталогу ссылок на торрент-файлы, которые содержат только списки хеш-сумм.
Убедительная просьба с жалобами обращаться напрямую к пользователю, разместившему торрент файл.

Вверх