Loading...
Error

(Jazz, Dixieland) Johnny Dodds - Wild Man Blues: His 24 Greatest 1923-1940 (1997) [FLAC (Tracks+.Cue), Lossless]

Статистика раздачи
Размер:  129 MB   |    Зарегистрирован:  6 дней   |    Скачан:  2 раза

Полного источника не было: 1 день 6 часов

Сидов:  0  |  0 KB/s  ]   Личеров:  0  |  0 KB/s  ]

* - сиды/пиры с внешних источников

   
 
Автор Сообщение

Бишеп Пол:Муж

08-Апр-2021 04:55

Johnny Dodds - Wild Man Blues: His 24 Greatest 1923-1940

Жанр: Jazz, Dixieland
Год выпуска: 1997
Носитель: CD
Производитель диска: ASV, Living Era - CD AJA 5252
Аудиокодек: FLAC
Тип рипа: Tracks+.CUE
Битрейт аудио: lossless
Продолжительность: 01:11:10


Треклист:
01. Canal Street Blues (02:37)
02. Yes! I'm in the Barrel (02:48)
03. Weary Blues (03:01)
04. Gatemouth (03:08)
05. Too Tight (02:59)
06. Mixed Salad (03:13)
07. Flat Foot (03:26)
08. Wild Man Blues (03:03)
09. When Erastus Plays His Old Kazoo (02:47)
10. Clarinet Wobble (02:37)

Exact Audio Copy V1.6 from 23. October 2020 

EAC extraction logfile from 19. March 2021, 17:17

Johnny Dodds / Wild Man Blues

Used drive : ASUS DRW-24B1ST j Adapter: 1 ID: 0

Read mode : Secure
Utilize accurate stream : Yes
Defeat audio cache : Yes
Make use of C2 pointers : No

Read offset correction : 6
Overread into Lead-In and Lead-Out : No
Fill up missing offset samples with silence : Yes
Delete leading and trailing silent blocks : No
Null samples used in CRC calculations : Yes
Used interface : Native Win32 interface for Win NT & 2000
Gap handling : Appended to previous track

Used output format : User Defined Encoder
Selected bitrate : 1024 kBit/s
Quality : High
Add ID3 tag : No
Command line compressor : C:\Program Files (x86)\Exact Audio Copy\Flac\flac.exe
Additional command line options : -8 -V -T "ARTIST=%artist%" -T "TITLE=%title%" -T "ALBUM=%albumtitle%" -T "DATE=%year%" -T "TRACKNUMBER=%tracknr%" -T "GENRE=%genre%" -T "PERFORMER=%albuminterpret%" -T "COMPOSER=%composer%" -T "ALBUMARTIST=%albumartist%" -T "DISCNUMBER=%cdnumber%" -T "TOTALDISCS=%totalcds%" -T "TOTALTRACKS=%numtracks%" -T "COMMENT=%comment%" %source% -o %dest%

TOC of the extracted CD

Track | Start | Length | Start sector | End sector
---------------------------------------------------------
1 | 0:00.32 | 2:36.48 | 32 | 11779
2 | 2:37.05 | 2:47.45 | 11780 | 24349
3 | 5:24.50 | 3:01.10 | 24350 | 37934
4 | 8:25.60 | 3:08.15 | 37935 | 52049
5 | 11:34.00 | 2:58.60 | 52050 | 65459
6 | 14:32.60 | 3:13.15 | 65460 | 79949
7 | 17:46.00 | 3:26.27 | 79950 | 95426
8 | 21:12.27 | 3:02.73 | 95427 | 109149
9 | 24:15.25 | 2:47.25 | 109150 | 121699
10 | 27:02.50 | 2:36.67 | 121700 | 133466
11 | 29:39.42 | 3:23.08 | 133467 | 148699
12 | 33:02.50 | 2:54.30 | 148700 | 161779
13 | 35:57.05 | 2:53.27 | 161780 | 174781
14 | 38:50.32 | 2:47.08 | 174782 | 187314
15 | 41:37.40 | 2:47.72 | 187315 | 199911
16 | 44:25.37 | 3:09.08 | 199912 | 214094
17 | 47:34.45 | 2:50.47 | 214095 | 226891
18 | 50:25.17 | 2:49.13 | 226892 | 239579
19 | 53:14.30 | 3:10.10 | 239580 | 253839
20 | 56:24.40 | 2:56.55 | 253840 | 267094
21 | 59:21.20 | 3:06.72 | 267095 | 281116
22 | 62:28.17 | 3:16.43 | 281117 | 295859
23 | 65:44.60 | 2:43.55 | 295860 | 308139
24 | 68:28.40 | 2:42.27 | 308140 | 320316

Track 1

Filename Z:\Music\Johnny Dodds - Wild Man Blues (1997) [FLAC] {CD AJA 5252}\01 - King Oliver's Creole Jazz Band - Canal Street Blues.wav

Pre-gap length 0:00:02.42

Peak level 68.6 %
Extraction speed 4.8 X
Track quality 100.0 %
Test CRC 690D85E3
Copy CRC 690D85E3
Track not present in AccurateRip database
Copy OK

Track 2

Filename Z:\Music\Johnny Dodds - Wild Man Blues (1997) [FLAC] {CD AJA 5252}\02 - Louis Armstrong & His Hot Five - Yes! I'm In The Barrel.wav

Pre-gap length 0:00:03.53

Peak level 74.9 %
Extraction speed 5.2 X
Track quality 100.0 %
Test CRC 6FE66654
Copy CRC 6FE66654
Track not present in AccurateRip database
Copy OK

Track 3

Filename Z:\Music\Johnny Dodds - Wild Man Blues (1997) [FLAC] {CD AJA 5252}\03 - Louis Armstrong & His Hot Seven - Weary Blues.wav

Pre-gap length 0:00:03.53

Peak level 99.9 %
Extraction speed 5.6 X
Track quality 100.0 %
Test CRC 2CC4CDCA
Copy CRC 2CC4CDCA
Track not present in AccurateRip database
Copy OK

Track 4

Filename Z:\Music\Johnny Dodds - Wild Man Blues (1997) [FLAC] {CD AJA 5252}\04 - New Orleans Wanderers - Gatemouth.wav

Pre-gap length 0:00:03.53

Peak level 71.8 %
Extraction speed 4.9 X
Track quality 99.9 %
Test CRC 36168708
Copy CRC 36168708
Track not present in AccurateRip database
Copy OK

Track 5

Filename Z:\Music\Johnny Dodds - Wild Man Blues (1997) [FLAC] {CD AJA 5252}\05 - New Orleans Wanderers - Too Tight.wav

Pre-gap length 0:00:03.50

Peak level 71.8 %
Extraction speed 6.3 X
Track quality 100.0 %
Test CRC 13FA13FA
Copy CRC 13FA13FA
Track not present in AccurateRip database
Copy OK

Track 6

Filename Z:\Music\Johnny Dodds - Wild Man Blues (1997) [FLAC] {CD AJA 5252}\06 - New Orleans Bootblacks - Mixed Salad.wav

Pre-gap length 0:00:03.50

Peak level 71.8 %
Extraction speed 5.4 X
Track quality 99.9 %
Test CRC 13FBBDAF
Copy CRC 13FBBDAF
Track not present in AccurateRip database
Copy OK

Track 7

Filename Z:\Music\Johnny Dodds - Wild Man Blues (1997) [FLAC] {CD AJA 5252}\07 - New Orleans Bootblacks - Flat Foot.wav

Pre-gap length 0:00:03.57

Peak level 78.0 %
Extraction speed 7.0 X
Track quality 100.0 %
Test CRC 23B2E06E
Copy CRC 23B2E06E
Track not present in AccurateRip database
Copy OK

Track 8

Filename Z:\Music\Johnny Dodds - Wild Man Blues (1997) [FLAC] {CD AJA 5252}\08 - Johnny Dodds' Black Bottom Stompers - Wild Man Blues.wav

Pre-gap length 0:00:03.53

Peak level 81.2 %
Extraction speed 7.2 X
Track quality 100.0 %
Test CRC E5F8B64F
Copy CRC E5F8B64F
Track not present in AccurateRip database
Copy OK

Track 9

Filename Z:\Music\Johnny Dodds - Wild Man Blues (1997) [FLAC] {CD AJA 5252}\09 - Johnny Dodds' Black Bottom Stompers - When Erastus Plays His Old Kazoo.wav

Pre-gap length 0:00:03.86

Peak level 68.6 %
Extraction speed 5.8 X
Track quality 99.9 %
Test CRC 0DCE1129
Copy CRC 0DCE1129
Track not present in AccurateRip database
Copy OK

Track 10

Filename Z:\Music\Johnny Dodds - Wild Man Blues (1997) [FLAC] {CD AJA 5252}\10 - Johnny Dodds Trio - Clarinet Wobble.wav

Pre-gap length 0:00:03.53

Peak level 56.1 %
Extraction speed 7.5 X
Track quality 100.0 %
Test CRC 1926E69E
Copy CRC 1926E69E
Track not present in AccurateRip database
Copy OK

Track 11

Filename Z:\Music\Johnny Dodds - Wild Man Blues (1997) [FLAC] {CD AJA 5252}\11 - Jelly Roll Morton Trio - Wolverine Blues.wav

Pre-gap length 0:00:03.53

Peak level 93.7 %
Extraction speed 8.0 X
Track quality 100.0 %
Test CRC BA34E938
Copy CRC BA34E938
Track not present in AccurateRip database
Copy OK

Track 12

Filename Z:\Music\Johnny Dodds - Wild Man Blues (1997) [FLAC] {CD AJA 5252}\12 - Jelly Roll Morton Trio - Mr. Jelly Lord.wav

Pre-gap length 0:00:03.53

Peak level 68.6 %
Extraction speed 8.1 X
Track quality 100.0 %
Test CRC D4172E76
Copy CRC D4172E76
Track not present in AccurateRip database
Copy OK

Track 13

Filename Z:\Music\Johnny Dodds - Wild Man Blues (1997) [FLAC] {CD AJA 5252}\13 - Jimmy Blythe's Owls - Hot Stuff.wav

Pre-gap length 0:00:03.53

Peak level 54.4 %
Extraction speed 8.3 X
Track quality 100.0 %
Test CRC 17F00F86
Copy CRC 17F00F86
Track not present in AccurateRip database
Copy OK

Track 14

Filename Z:\Music\Johnny Dodds - Wild Man Blues (1997) [FLAC] {CD AJA 5252}\14 - The Chicago Footwarmers - Ballin' A Jack.wav

Pre-gap length 0:00:03.53

Peak level 99.9 %
Extraction speed 8.4 X
Track quality 100.0 %
Test CRC 4F642E68
Copy CRC 4F642E68
Track not present in AccurateRip database
Copy OK

Track 15

Filename Z:\Music\Johnny Dodds - Wild Man Blues (1997) [FLAC] {CD AJA 5252}\15 - The Chicago Footwarmers - Grandma's Ball.wav

Pre-gap length 0:00:03.57

Peak level 99.9 %
Extraction speed 6.8 X
Track quality 99.9 %
Test CRC 62F9DD7E
Copy CRC 62F9DD7E
Track not present in AccurateRip database
Copy OK

Track 16

Filename Z:\Music\Johnny Dodds - Wild Man Blues (1997) [FLAC] {CD AJA 5252}\16 - Blind Blake - Southbound Rag.wav

Pre-gap length 0:00:03.53

Peak level 71.8 %
Extraction speed 9.0 X
Track quality 100.0 %
Test CRC 859F2F80
Copy CRC 859F2F80
Track not present in AccurateRip database
Copy OK

Track 17

Filename Z:\Music\Johnny Dodds - Wild Man Blues (1997) [FLAC] {CD AJA 5252}\17 - The Chicago Footwarmers - Get 'Em Again Blues.wav

Pre-gap length 0:00:03.53

Peak level 78.0 %
Extraction speed 7.1 X
Track quality 99.9 %
Test CRC 1D44D3F2
Copy CRC 1D44D3F2
Track not present in AccurateRip database
Copy OK

Track 18

Filename Z:\Music\Johnny Dodds - Wild Man Blues (1997) [FLAC] {CD AJA 5252}\18 - The Chicago Footwarmers - Lady Love.wav

Pre-gap length 0:00:03.53

Peak level 74.9 %
Extraction speed 9.2 X
Track quality 100.0 %
Test CRC C26229C7
Copy CRC C26229C7
Track not present in AccurateRip database
Copy OK

Track 19

Filename Z:\Music\Johnny Dodds - Wild Man Blues (1997) [FLAC] {CD AJA 5252}\19 - Johnny Dodds Washboard Band - Bucktown Stomp.wav

Pre-gap length 0:00:03.53

Peak level 78.0 %
Extraction speed 9.5 X
Track quality 100.0 %
Test CRC 20E0FA48
Copy CRC 20E0FA48
Track not present in AccurateRip database
Copy OK

Track 20

Filename Z:\Music\Johnny Dodds - Wild Man Blues (1997) [FLAC] {CD AJA 5252}\20 - Johnny Dodds Washboard Band - Bull Fiddle Blues.wav

Pre-gap length 0:00:03.57

Peak level 99.9 %
Extraction speed 9.7 X
Track quality 100.0 %
Test CRC F9D5FB54
Copy CRC F9D5FB54
Track not present in AccurateRip database
Copy OK

Track 21

Filename Z:\Music\Johnny Dodds - Wild Man Blues (1997) [FLAC] {CD AJA 5252}\21 - Johnny Dodds Trio - Indigo Stomp.wav

Pre-gap length 0:00:03.53

Peak level 71.8 %
Extraction speed 9.8 X
Track quality 100.0 %
Test CRC 190E9608
Copy CRC 190E9608
Track not present in AccurateRip database
Copy OK

Track 22

Filename Z:\Music\Johnny Dodds - Wild Man Blues (1997) [FLAC] {CD AJA 5252}\22 - Johnny Dodds And His Orchestra - Heah' Me Talkin'.wav

Pre-gap length 0:00:03.53

Peak level 78.0 %
Extraction speed 10.1 X
Track quality 100.0 %
Test CRC E0041F1A
Copy CRC E0041F1A
Track not present in AccurateRip database
Copy OK

Track 23

Filename Z:\Music\Johnny Dodds - Wild Man Blues (1997) [FLAC] {CD AJA 5252}\23 - Johnny Dodds And His Chicago Boys - Melancholy.wav

Pre-gap length 0:00:03.53

Peak level 56.1 %
Extraction speed 10.0 X
Track quality 100.0 %
Test CRC 859CE926
Copy CRC 859CE926
Track not present in AccurateRip database
Copy OK

Track 24

Filename Z:\Music\Johnny Dodds - Wild Man Blues (1997) [FLAC] {CD AJA 5252}\24 - Johnny Dodds And His Orchestra - Gravier Street Blues.wav

Pre-gap length 0:00:03.57

Peak level 84.3 %
Extraction speed 7.8 X
Track quality 99.9 %
Test CRC D496FE9C
Copy CRC D496FE9C
Track not present in AccurateRip database
Copy OK

None of the tracks are present in the AccurateRip database

No errors occurred

End of status report

---- CUETools DB Plugin V2.1.6

[CTDB TOCID: 2V5Av.5s6eGX7f2B6WXagVQz.SE-] found
Submit result: already submitted
Track | CTDB Status
1 | (1/1) Accurately ripped
2 | (1/1) Accurately ripped
3 | (1/1) Accurately ripped
4 | (1/1) Accurately ripped
5 | (1/1) Accurately ripped
6 | (1/1) Accurately ripped
7 | (1/1) Accurately ripped
8 | (1/1) Accurately ripped
9 | (1/1) Accurately ripped
10 | (1/1) Accurately ripped
11 | (1/1) Accurately ripped
12 | (1/1) Accurately ripped
13 | (1/1) Accurately ripped
14 | (1/1) Accurately ripped
15 | (1/1) Accurately ripped
16 | (1/1) Accurately ripped
17 | (1/1) Accurately ripped
18 | (1/1) Accurately ripped
19 | (1/1) Accurately ripped
20 | (1/1) Accurately ripped
21 | (1/1) Accurately ripped
22 | (1/1) Accurately ripped
23 | (1/1) Accurately ripped
24 | (1/1) Accurately ripped

==== Log checksum FBFCFBF56C25D1BA72CFB16F16C73D6F1F02FEB1AA94E120A3E6F4D5E93480FA ====
REM GENRE Jazz 
REM DATE 1997
REM DISCID 7F10AE18
REM COMMENT "ExactAudioCopy v1.6"
PERFORMER "Johnny Dodds"
TITLE "Wild Man Blues"
FILE "01 - Canal Street Blues.wav" WAVE
TRACK 01 AUDIO
TITLE "Canal Street Blues"
PERFORMER "Johnny Dodds"
PREGAP 00:00:32
INDEX 01 00:00:00
TRACK 02 AUDIO
TITLE "Yes! I'm in the Barrel"
PERFORMER "Johnny Dodds"
INDEX 00 02:33:08
FILE "02 - Yes! I'm in the Barrel.wav" WAVE
INDEX 01 00:00:00
TRACK 03 AUDIO
TITLE "Weary Blues"
PERFORMER "Johnny Dodds"
INDEX 00 02:44:05
FILE "03 - Weary Blues.wav" WAVE
INDEX 01 00:00:00
TRACK 04 AUDIO
TITLE "Gatemouth"
PERFORMER "Johnny Dodds"
INDEX 00 02:57:45
FILE "04 - Gatemouth.wav" WAVE
INDEX 01 00:00:00
TRACK 05 AUDIO
TITLE "Too Tight"
PERFORMER "Johnny Dodds"
INDEX 00 03:04:52
FILE "05 - Too Tight.wav" WAVE
INDEX 01 00:00:00
TRACK 06 AUDIO
TITLE "Mixed Salad"
PERFORMER "Johnny Dodds"
INDEX 00 02:55:22
FILE "06 - Mixed Salad.wav" WAVE
INDEX 01 00:00:00
TRACK 07 AUDIO
TITLE "Flat Foot"
PERFORMER "Johnny Dodds"
INDEX 00 03:09:47
FILE "07 - Flat Foot.wav" WAVE
INDEX 01 00:00:00
TRACK 08 AUDIO
TITLE "Wild Man Blues"
PERFORMER "Johnny Dodds"
INDEX 00 03:22:62
FILE "08 - Wild Man Blues.wav" WAVE
INDEX 01 00:00:00
TRACK 09 AUDIO
TITLE "When Erastus Plays His Old Kazoo"
PERFORMER "Johnny Dodds"
INDEX 00 02:59:08
FILE "09 - When Erastus Plays His Old Kazoo.wav" WAVE
INDEX 01 00:00:00
TRACK 10 AUDIO
TITLE "Clarinet Wobble"
PERFORMER "Johnny Dodds"
INDEX 00 02:43:60
FILE "10 - Clarinet Wobble.wav" WAVE
INDEX 01 00:00:00
TRACK 11 AUDIO
TITLE "Wolverine Blues"
PERFORMER "Johnny Dodds"
INDEX 00 02:33:27
FILE "11 - Wolverine Blues.wav" WAVE
INDEX 01 00:00:00
TRACK 12 AUDIO
TITLE "Mr. Jelly Lord"
PERFORMER "Johnny Dodds"
INDEX 00 03:19:43
FILE "12 - Mr. Jelly Lord.wav" WAVE
INDEX 01 00:00:00
TRACK 13 AUDIO
TITLE "Hot Stuff"
PERFORMER "Johnny Dodds"
INDEX 00 02:50:65
FILE "13 - Hot Stuff.wav" WAVE
INDEX 01 00:00:00
TRACK 14 AUDIO
TITLE "Ballin' a Jack"
PERFORMER "Johnny Dodds"
INDEX 00 02:49:62
FILE "14 - Ballin' a Jack.wav" WAVE
INDEX 01 00:00:00
TRACK 15 AUDIO
TITLE "Grandma's Ball"
PERFORMER "Johnny Dodds"
INDEX 00 02:43:40
FILE "15 - Grandma's Ball.wav" WAVE
INDEX 01 00:00:00
TRACK 16 AUDIO
TITLE "South Bound Rag"
PERFORMER "Johnny Dodds"
INDEX 00 02:44:32
FILE "16 - South Bound Rag.wav" WAVE
INDEX 01 00:00:00
TRACK 17 AUDIO
TITLE "Get 'Em Again Blues"
PERFORMER "Johnny Dodds"
INDEX 00 03:05:43
FILE "17 - Get 'Em Again Blues.wav" WAVE
INDEX 01 00:00:00
TRACK 18 AUDIO
TITLE "Lady Love"
PERFORMER "Johnny Dodds"
INDEX 00 02:47:07
FILE "18 - Lady Love.wav" WAVE
INDEX 01 00:00:00
TRACK 19 AUDIO
TITLE "Bucktown Stomp"
PERFORMER "Johnny Dodds"
INDEX 00 02:45:48
FILE "19 - Bucktown Stomp.wav" WAVE
INDEX 01 00:00:00
TRACK 20 AUDIO
TITLE "Bull Fiddle Blues"
PERFORMER "Johnny Dodds"
INDEX 00 03:06:42
FILE "20 - Bull Fiddle Blues.wav" WAVE
INDEX 01 00:00:00
TRACK 21 AUDIO
TITLE "Indigo Stomp"
PERFORMER "Johnny Dodds"
INDEX 00 02:53:15
FILE "21 - Indigo Stomp.wav" WAVE
INDEX 01 00:00:00
TRACK 22 AUDIO
TITLE "Heah' Me Talkin'"
PERFORMER "Johnny Dodds"
INDEX 00 03:03:32
FILE "22 - Heah' Me Talkin'.wav" WAVE
INDEX 01 00:00:00
TRACK 23 AUDIO
TITLE "Melancholy"
PERFORMER "Johnny Dodds"
INDEX 00 03:13:03
FILE "23 - Melancholy.wav" WAVE
INDEX 01 00:00:00
TRACK 24 AUDIO
TITLE "Gravier Street Blues"
PERFORMER "Johnny Dodds"
INDEX 00 02:40:12
FILE "24 - Gravier Street Blues.wav" WAVE
INDEX 01 00:00:00

Этот торрент недоступен для скачивания без регистрации, однако доступен по публичной magnet-ссылке (источники с публичных трекеров). Перед использованием ссылки прочтите, пожалуйста Пользовательское соглашение, а также как можно дольше оставайтесь на раздаче! Для того, чтобы скачать сам торрент-файл (который видит больше источников), а также для того, чтобы поблагодарить релизера, вам необходимо зарегистрироваться. Если регистрироваться лень - вы можете также попробовать скачать релиз по нашим партнерским ссылкам ниже. Кроме того, зарегистрированным пользователям не показывается всплывающая реклама при скачивании.

[underver.se].t203980.torrent
Трекер: Зарегистрирован   [ 08.04.2021 04:55 ]  

Статус: проверено (by Бишеп at 08.04.2021 04:55)
Поблагодарили: пока никто не поблагодарил...
Тип торрента: публичный - доступные источники с открытых трекеров: 
Размер: 129 MB (занимает 0,03 DVDR, для записи нужно 1 болванка DVDR/RW)
 
 
Похожие темы
Форум Тема Автор Торрент Отв. Посл. сооб.
Jazz (Lossless) (Jazz, Dixieland) The Bryan Ferry Orchestra - Music From Baz Luhrmann's Film The Great Gatsby (2013) [FLAC (Image+.CUE), Lossless] Бишеп
1 | 0

0 | 2400

14

10.12.2014 18:49

Jazz (Lossless) (Jazz, Dixieland) The Bryan Ferry Orchestra - The Jazz Age (2012) [FLAC (Tracks+.CUE), Lossless] Бишеп
1 | 0

0 | 2147

23

11.12.2014 08:04

Jazz (Lossless) (Jazz, Dixieland) Tuba Skinny - Tupelo Pine (2017) [FLAC (Tracks), Lossless] Web Бишеп
1 | 0

0 | 450

5

17.01.2020 13:46


Яндекс.Метрика powered by Sphinx


В Н И М А Н И Е
Сайт не распространяет и не хранит электронные версии произведений, а лишь бесплатно и без коммерческой выгоды (не требуя взамен платы,
SMS и т.д.) предоставляет доступ к создаваемому пользователями каталогу ссылок на торрент-файлы, которые содержат только списки хеш-сумм.
Убедительная просьба с жалобами обращаться напрямую к пользователю, разместившему торрент файл.

Вверх