Loading...
Error

(Electric Blues) Mad Shadow - Heavy Blues (2013) [FLAC (Tracks+.Cue), Lossless]

Статистика раздачи
Размер:  279 MB   |    Зарегистрирован:  6 дней   |    Скачан:  1 раз

Полного источника не было: 14 часов

Сидов:  0  |  0 KB/s  ]   Личеров:  0  |  0 KB/s  ]

* - сиды/пиры с внешних источников

   
 
Автор Сообщение

Бишеп Пол:Муж

08-Апр-2021 04:42

Mad Shadow - Heavy Blues

Жанр: Electric Blues
Год выпуска: 2013
Носитель: CD
Производитель диска: Bear Records - 10002
Аудиокодек: FLAC
Тип рипа: Tracks+.CUE
Битрейт аудио: lossless
Продолжительность: 00:40:51


Треклист:
01. Rocking Chair (02:40)
02. Bad Man (06:25)
03. Evil (03:21)
04. Low Down Dirty Boogie (03:22)
05. Heavy Blues (07:09)
06. Poppin' (Up On Suzie) (05:41)
07. The One To Get (05:10)
08. Headed Down To Georgia (02:16)
09. What I Told You Before (04:48)

Exact Audio Copy V1.3 from 2. September 2016 

EAC extraction logfile from 7. April 2021, 9:28

Mad Shadow / Heavy Blues

Used drive : ASUS DRW-24D5MT Adapter: 1 ID: 1

Read mode : Secure
Utilize accurate stream : Yes
Defeat audio cache : Yes
Make use of C2 pointers : No

Read offset correction : 6
Overread into Lead-In and Lead-Out : No
Fill up missing offset samples with silence : Yes
Delete leading and trailing silent blocks : No
Null samples used in CRC calculations : Yes
Used interface : Installed external ASPI interface
Gap handling : Appended to previous track

Used output format : User Defined Encoder
Selected bitrate : 128 kBit/s
Quality : High
Add ID3 tag : No
Command line compressor : C:\Program Files (x86)\Exact Audio Copy\Flac\flac.exe
Additional command line options : -8 -V -T "TITLE=%title%" -T "ARTIST=%artist%" -T "ALBUMARTIST=%albumartist%" -T "ALBUM=%albumtitle%" -T "DATE=%year%" -T "TRACKNUMBER=%tracknr%" -T "TRACKTOTAL=%numtracks%" -T "GENRE=%genre%" -T "COMMENT=%comment%" -T "PERFORMER=%albuminterpret%" -T "COMPOSER=%composer%" %source% -o %dest%

TOC of the extracted CD

Track | Start | Length | Start sector | End sector
---------------------------------------------------------
1 | 0:00.00 | 2:39.49 | 0 | 11973
2 | 2:39.49 | 6:25.34 | 11974 | 40882
3 | 9:05.08 | 3:21.27 | 40883 | 55984
4 | 12:26.35 | 3:21.46 | 55985 | 71105
5 | 15:48.06 | 7:08.45 | 71106 | 103250
6 | 22:56.51 | 5:40.40 | 103251 | 128790
7 | 28:37.16 | 5:09.63 | 128791 | 152028
8 | 33:47.04 | 2:15.50 | 152029 | 162203
9 | 36:02.54 | 4:48.15 | 162204 | 183818

Track 1

Filename C:\Users\breaker65\Desktop\Heavy Blues\01 Rocking Chair.wav

Pre-gap length 0:00:02.00

Peak level 98.8 %
Extraction speed 1.8 X
Track quality 100.0 %
Test CRC CC2445B7
Copy CRC CC2445B7
Accurately ripped (confidence 3) [EDC0B84E] (AR v2)
Copy OK

Track 2

Filename C:\Users\breaker65\Desktop\Heavy Blues\02 Bad Man.wav

Peak level 98.8 %
Extraction speed 1.9 X
Track quality 99.9 %
Test CRC 9AC9A18E
Copy CRC 9AC9A18E
Accurately ripped (confidence 3) [97261202] (AR v2)
Copy OK

Track 3

Filename C:\Users\breaker65\Desktop\Heavy Blues\03 Evil.wav

Peak level 98.8 %
Extraction speed 2.3 X
Track quality 100.0 %
Test CRC ED2C49F9
Copy CRC ED2C49F9
Accurately ripped (confidence 3) [5BD40F1D] (AR v2)
Copy OK

Track 4

Filename C:\Users\breaker65\Desktop\Heavy Blues\04 Low Down Dirty Boogie.wav

Pre-gap length 0:00:02.00

Peak level 98.8 %
Extraction speed 2.4 X
Track quality 100.0 %
Test CRC 1B558E33
Copy CRC 1B558E33
Accurately ripped (confidence 3) [0D808039] (AR v2)
Copy OK

Track 5

Filename C:\Users\breaker65\Desktop\Heavy Blues\05 Heavy Blues.wav

Peak level 98.8 %
Extraction speed 2.4 X
Track quality 99.9 %
Test CRC 4433853A
Copy CRC 4433853A
Accurately ripped (confidence 3) [A270129F] (AR v2)
Copy OK

Track 6

Filename C:\Users\breaker65\Desktop\Heavy Blues\06 Poppin' (Up On Suzie).wav

Peak level 98.8 %
Extraction speed 3.0 X
Track quality 100.0 %
Test CRC DDC6348D
Copy CRC DDC6348D
Accurately ripped (confidence 3) [14110E37] (AR v2)
Copy OK

Track 7

Filename C:\Users\breaker65\Desktop\Heavy Blues\07 The One To Get.wav

Peak level 98.8 %
Extraction speed 3.2 X
Track quality 100.0 %
Test CRC 571C0AB6
Copy CRC 571C0AB6
Accurately ripped (confidence 3) [638EFCEC] (AR v2)
Copy OK

Track 8

Filename C:\Users\breaker65\Desktop\Heavy Blues\08 Headed Down To Georgia.wav

Peak level 98.8 %
Extraction speed 2.9 X
Track quality 100.0 %
Test CRC 9E350634
Copy CRC 9E350634
Accurately ripped (confidence 3) [4C6E2EEC] (AR v2)
Copy OK

Track 9

Filename C:\Users\breaker65\Desktop\Heavy Blues\09 What I Told You Before.wav

Peak level 98.8 %
Extraction speed 2.6 X
Track quality 99.9 %
Test CRC 62F8B44C
Copy CRC 62F8B44C
Accurately ripped (confidence 3) [177BD92D] (AR v2)
Copy OK

All tracks accurately ripped

No errors occurred

End of status report

---- CUETools DB Plugin V2.1.6

[CTDB TOCID: pT_rxjTj59zN6ytPkWLRVJHjLgs-] found
Submit result: pT_rxjTj59zN6ytPkWLRVJHjLgs- has been confirmed
Track | CTDB Status
1 | (3/4) Accurately ripped
2 | (3/4) Accurately ripped
3 | (3/4) Accurately ripped
4 | (4/4) Accurately ripped
5 | (3/4) Accurately ripped
6 | (3/4) Accurately ripped
7 | (3/4) Accurately ripped
8 | (3/4) Accurately ripped
9 | (4/4) Accurately ripped

==== Log checksum 6A040FD21C5F8724D5444312F319A32B231082F7F04D9D7EB985FEE75CF359CD ====
REM GENRE "Heavy Blues" 
REM DATE 2013
REM DISCID 7A099209
REM COMMENT "ExactAudioCopy v1.3"
PERFORMER "Mad Shadow"
TITLE "Heavy Blues"
REM COMPOSER ""
FILE "01 Rocking Chair.wav" WAVE
TRACK 01 AUDIO
TITLE "Rocking Chair"
PERFORMER "Mad Shadow"
REM COMPOSER ""
INDEX 01 00:00:00
FILE "02 Bad Man.wav" WAVE
TRACK 02 AUDIO
TITLE " Bad Man"
PERFORMER "Mad Shadow"
REM COMPOSER ""
INDEX 01 00:00:00
FILE "03 Evil.wav" WAVE
TRACK 03 AUDIO
TITLE "Evil"
PERFORMER "Mad Shadow"
REM COMPOSER ""
INDEX 01 00:00:00
TRACK 04 AUDIO
TITLE "Low Down Dirty Boogie"
PERFORMER "Mad Shadow"
REM COMPOSER ""
INDEX 00 03:19:27
FILE "04 Low Down Dirty Boogie.wav" WAVE
INDEX 01 00:00:00
FILE "05 Heavy Blues.wav" WAVE
TRACK 05 AUDIO
TITLE " Heavy Blues"
PERFORMER "Mad Shadow"
REM COMPOSER ""
INDEX 01 00:00:00
FILE "06 Poppin' (Up On Suzie).wav" WAVE
TRACK 06 AUDIO
TITLE "Poppin' (Up On Suzie)"
PERFORMER "Mad Shadow"
REM COMPOSER ""
INDEX 01 00:00:00
FILE "07 The One To Get.wav" WAVE
TRACK 07 AUDIO
TITLE "The One To Get"
PERFORMER "Mad Shadow"
REM COMPOSER ""
INDEX 01 00:00:00
FILE "08 Headed Down To Georgia.wav" WAVE
TRACK 08 AUDIO
TITLE "Headed Down To Georgia"
PERFORMER "Mad Shadow"
REM COMPOSER ""
INDEX 01 00:00:00
FILE "09 What I Told You Before.wav" WAVE
TRACK 09 AUDIO
TITLE "What I Told You Before"
PERFORMER "Mad Shadow"
REM COMPOSER ""
INDEX 01 00:00:00

Этот торрент недоступен для скачивания без регистрации, однако доступен по публичной magnet-ссылке (источники с публичных трекеров). Перед использованием ссылки прочтите, пожалуйста Пользовательское соглашение, а также как можно дольше оставайтесь на раздаче! Для того, чтобы скачать сам торрент-файл (который видит больше источников), а также для того, чтобы поблагодарить релизера, вам необходимо зарегистрироваться. Если регистрироваться лень - вы можете также попробовать скачать релиз по нашим партнерским ссылкам ниже. Кроме того, зарегистрированным пользователям не показывается всплывающая реклама при скачивании.

[underver.se].t203978.torrent
Трекер: Зарегистрирован   [ 08.04.2021 04:42 ]  

Статус: проверено (by Бишеп at 08.04.2021 04:43)
Поблагодарили: пока никто не поблагодарил...
Тип торрента: публичный - доступные источники с открытых трекеров: 
Размер: 279 MB (занимает 0,06 DVDR, для записи нужно 1 болванка DVDR/RW)
 
 
Похожие темы
Форум Тема Автор Торрент Отв. Посл. сооб.
Blues (Electric Blues) Patrick Recob - Perpetual Luau (2017) [MP3, 320 kbps CBR] Darkferse
0 | 1

0 | 1015

5

05.05.2017 10:09

Blues (Electric Blues) Bad Blues Quartet - Bad Blues Quartet (2017) [MP3, 320 kbps CBR] Darkferse
1 | 0

0 | 908

3

16.06.2017 13:40

Blues (Electric Blues) Peter O'Donnell - Into The Blue (2017) [MP3, 320 kbps CBR] Darkferse
0 | 0

0 | 993

4

16.06.2017 13:49

Blues (Electric Blues) Peter Ward - Blues On My Shoulders (2017) [MP3, 320 kbps CBR] Darkferse
1 | 1

0 | 983

5

07.09.2017 12:14

Blues (Electric Blues) The Mark Robinson Band - Live At The 5 Spot (2017) [MP3, 320 kbps CBR] Darkferse
0 | 0

0 | 1114

4

07.09.2017 12:21

Blues (Electric Blues) The Harry Garner Band - Somethin's 'Bout To Pop! (2017) [MP3, 320 kbps CBR] Darkferse
0 | 0

0 | 1008

4

08.12.2017 00:51

Blues (Electric Blues) The Bottles - Hot Rod Blues (2017) [MP3, 320 kbps CBR] Darkferse
1 | 1

0 | 956

2

01.01.2018 13:08

Blues (Electric Blues) Roger Girke (Feat. The Wandering Souls) - Silver Lining (2017) [MP3, 320 kbps CBR] Darkferse
0 | 1

0 | 1049

4

03.01.2018 11:04

Blues (Electric Blues) Jay Willie Blues Band - Discography (2010-2017) [MP3, 320 kbps CBR] Darkferse
1 | 0

0 | 1200

2

03.01.2018 20:02

Blues (Electric Blues) Dry Johnson - Long Live Them Blues Vol. 1 (2018) [MP3, 320 kbps CBR] Darkferse
1 | 0

0 | 815

3

20.10.2018 18:01


Яндекс.Метрика powered by Sphinx


В Н И М А Н И Е
Сайт не распространяет и не хранит электронные версии произведений, а лишь бесплатно и без коммерческой выгоды (не требуя взамен платы,
SMS и т.д.) предоставляет доступ к создаваемому пользователями каталогу ссылок на торрент-файлы, которые содержат только списки хеш-сумм.
Убедительная просьба с жалобами обращаться напрямую к пользователю, разместившему торрент файл.

Вверх