Loading...
Error

(Alternative Rock, Grunge) Evanescence - The Bitter Truth (2021) Japan Edition [FLAC (Image+.CUE), Lossless]

Статистика раздачи
Размер:  369 MB   |    Зарегистрирован:  6 дней   |    Скачан:  1 раз

Полного источника не было: 2 дня 12 часов

Сидов:  0  |  0 KB/s  ]   Личеров:  0  |  0 KB/s  ]

* - сиды/пиры с внешних источников

   
 
Автор Сообщение

Бишеп Пол:Муж

08-Апр-2021 04:22

Evanescence - The Bitter Truth

Жанр: Alternative Rock, Grunge
Год выпуска: 2021
Носитель: CD
Производитель диска: BMG - UICN-9038, Virgin - 9038, Universal - UICN-9038
Аудиокодек: FLAC
Тип рипа: Image+.CUE
Битрейт аудио: lossless
Продолжительность: 00:54:55


Треклист:
01. Artifact/The Turn (02:26)
02. Broken Pieces Shine (03:50)
03. The Game Is Over (04:22)
04. Yeah Right (03:29)
05. Feeding the Dark (04:14)
06. Wasted On You (04:24)
07. Better Without You (04:05)
08. Use My Voice (04:01)
09. Take Cover (03:14)
10. Far From Heaven (04:57)
11. Part of Me (03:59)
12. Blind Belief (04:11)
Bonus Tracks:
13. Cruel Summer (Live From Home) (3:24)
14. The Chain (4:13)

Exact Audio Copy V1.5 from 20. February 2020 

EAC extraction logfile from 2. April 2021, 23:59

Evanescence / The Bitter Truth (UICN-9038)

Used drive : TSSTcorpDVDWBD SH-B123L Adapter: 1 ID: 1

Read mode : Secure
Utilize accurate stream : Yes
Defeat audio cache : Yes
Make use of C2 pointers : No

Read offset correction : 6
Overread into Lead-In and Lead-Out : No
Fill up missing offset samples with silence : Yes
Delete leading and trailing silent blocks : No
Null samples used in CRC calculations : Yes
Used interface : Native Win32 interface for Win NT & 2000

Used output format : User Defined Encoder
Selected bitrate : 896 kBit/s
Quality : High
Add ID3 tag : No
Command line compressor : C:\Program Files (x86)\Exact Audio Copy\FLAC\FLAC.EXE
Additional command line options : -6 -V -T "ARTIST=%artist%" -T "TITLE=%title%" -T "ALBUM=%albumtitle%" -T "DATE=%year%" -T "TRACKNUMBER=%tracknr%" -T "GENRE=%genre%" -T "COMMENT=%comment%" -T "BAND=%albuminterpret%" -T "ALBUMARTIST=%albuminterpret%" -T "COMPOSER=%composer%" %haslyrics%--tag-from-file=LYRICS="%lyricsfile%"%haslyrics% -T "DISCNUMBER=%cdnumber%" -T "TOTALDISCS=%totalcds%" -T "TOTALTRACKS=%numtracks%" %hascover%--picture="%coverfile%"%hascover% %source% -o %dest%

TOC of the extracted CD

Track | Start | Length | Start sector | End sector
---------------------------------------------------------
1 | 0:00.00 | 2:26.47 | 0 | 10996
2 | 2:26.47 | 3:50.34 | 10997 | 28280
3 | 6:17.06 | 4:22.05 | 28281 | 47935
4 | 10:39.11 | 3:29.12 | 47936 | 63622
5 | 14:08.23 | 4:14.21 | 63623 | 82693
6 | 18:22.44 | 4:24.21 | 82694 | 102514
7 | 22:46.65 | 4:05.35 | 102515 | 120924
8 | 26:52.25 | 4:01.27 | 120925 | 139026
9 | 30:53.52 | 3:14.51 | 139027 | 153627
10 | 34:08.28 | 4:57.10 | 153628 | 175912
11 | 39:05.38 | 3:59.64 | 175913 | 193901
12 | 43:05.27 | 4:13.45 | 193902 | 212921
13 | 47:18.72 | 3:23.63 | 212922 | 228209
14 | 50:42.60 | 4:12.16 | 228210 | 247125

Range status and errors

Selected range

Filename E:\MUSIC\Evanescence - The Bitter Truth (UICN-9038).wav

Peak level 100.0 %
Extraction speed 7.3 X
Range quality 100.0 %
Test CRC 0A1D6BAF
Copy CRC 0A1D6BAF
Copy OK

No errors occurred

AccurateRip summary
Track 1 not present in database
Track 2 not present in database
Track 3 not present in database
Track 4 not present in database
Track 5 not present in database
Track 6 not present in database
Track 7 not present in database
Track 8 not present in database
Track 9 not present in database
Track 10 not present in database
Track 11 not present in database
Track 12 not present in database
Track 13 not present in database
Track 14 not present in database
None of the tracks are present in the AccurateRip database

End of status report

---- CUETools DB Plugin V2.1.6

[CTDB TOCID: WpDkZSv_1AmESklkRmNnEjzK7A8-] found
Submit result: WpDkZSv_1AmESklkRmNnEjzK7A8- has been confirmed
Track | CTDB Status
1 | (17/17) Accurately ripped
2 | (17/17) Accurately ripped
3 | (17/17) Accurately ripped
4 | (17/17) Accurately ripped
5 | (17/17) Accurately ripped
6 | (17/17) Accurately ripped
7 | (17/17) Accurately ripped
8 | (17/17) Accurately ripped
9 | (17/17) Accurately ripped
10 | (17/17) Accurately ripped
11 | (17/17) Accurately ripped
12 | (17/17) Accurately ripped
13 | (17/17) Accurately ripped
14 | (17/17) Accurately ripped

==== Log checksum A2A4102EE1ED98A2D21F5A9E39716F2FA73F0BAF72544B6A8803812D9C454E5E ====
REM GENRE Rock 
REM DATE 2021
REM DISCID B70CDF0E
REM COMMENT "ExactAudioCopy v1.5"
PERFORMER "Evanescence"
TITLE "The Bitter Truth (UICN-9038)"
REM COMPOSER ""
FILE "Evanescence - The Bitter Truth (UICN-9038).flac" WAVE
TRACK 01 AUDIO
TITLE "Artifact / The Turn"
PERFORMER "Evanescence"
REM COMPOSER ""
INDEX 01 00:00:00
TRACK 02 AUDIO
TITLE "Broken Pieces Shine"
PERFORMER "Evanescence"
REM COMPOSER ""
INDEX 01 02:26:47
TRACK 03 AUDIO
TITLE "The Game Is Over"
PERFORMER "Evanescence"
REM COMPOSER ""
INDEX 01 06:17:06
TRACK 04 AUDIO
TITLE "Yeah Right"
PERFORMER "Evanescence"
REM COMPOSER ""
INDEX 01 10:39:11
TRACK 05 AUDIO
TITLE "Feeding the Dark"
PERFORMER "Evanescence"
REM COMPOSER ""
INDEX 01 14:08:23
TRACK 06 AUDIO
TITLE "Wasted on You"
PERFORMER "Evanescence"
REM COMPOSER ""
INDEX 01 18:22:44
TRACK 07 AUDIO
TITLE "Better Without You"
PERFORMER "Evanescence"
REM COMPOSER ""
INDEX 01 22:46:65
TRACK 08 AUDIO
TITLE "Use My Voice"
PERFORMER "Evanescence"
REM COMPOSER ""
INDEX 01 26:52:25
TRACK 09 AUDIO
TITLE "Take Cover"
PERFORMER "Evanescence"
REM COMPOSER ""
INDEX 01 30:53:52
TRACK 10 AUDIO
TITLE "Far From Heaven"
PERFORMER "Evanescence"
REM COMPOSER ""
INDEX 01 34:08:28
TRACK 11 AUDIO
TITLE "Part of Me"
PERFORMER "Evanescence"
REM COMPOSER ""
INDEX 01 39:05:38
TRACK 12 AUDIO
TITLE "Blind Belief"
PERFORMER "Evanescence"
REM COMPOSER ""
INDEX 01 43:05:27
TRACK 13 AUDIO
TITLE "Cruel Summer (Live From Home)"
PERFORMER "Evanescence"
REM COMPOSER ""
INDEX 01 47:18:72
TRACK 14 AUDIO
TITLE "The Chain"
PERFORMER "Evanescence"
REM COMPOSER ""
INDEX 01 50:42:60

Этот торрент недоступен для скачивания без регистрации, однако доступен по публичной magnet-ссылке (источники с публичных трекеров). Перед использованием ссылки прочтите, пожалуйста Пользовательское соглашение, а также как можно дольше оставайтесь на раздаче! Для того, чтобы скачать сам торрент-файл (который видит больше источников), а также для того, чтобы поблагодарить релизера, вам необходимо зарегистрироваться. Если регистрироваться лень - вы можете также попробовать скачать релиз по нашим партнерским ссылкам ниже. Кроме того, зарегистрированным пользователям не показывается всплывающая реклама при скачивании.

[underver.se].t203974.torrent
Трекер: Зарегистрирован   [ 08.04.2021 04:22 ]  

Статус: проверено (by Бишеп at 08.04.2021 04:23)
Поблагодарили: пока никто не поблагодарил...
Тип торрента: публичный - доступные источники с открытых трекеров: 
Размер: 369 MB (занимает 0,08 DVDR, для записи нужно 1 болванка DVDR/RW)
 
 
Похожие темы
Форум Тема Автор Торрент Отв. Посл. сооб.
Зарубежная Pop Музыка (Alternative Pop, Neo Soul, Indie) Amanda Jenssen - Sanger fran on (2015) [MP3, 320 kbps] 90ytr90
0 | 0

0 | 2007

4

23.03.2015 19:02

Зарубежная Pop Музыка (Alternative, Indie) Anna of the North - Lovers (2017) [MP3, 320 kbps CBR] Darkferse
0 | 1

0 | 1849

4

13.09.2017 08:47

Зарубежная Pop Музыка (Alternative, Pop, Soul) Plan B - Heaven Before All Hell Breaks Loose (2018) [MP3, 320 kbps CBR] 90ytr90
1 | 0

0 | 1557

3

03.06.2018 05:52

Зарубежная Pop Музыка (Alternative, Pop, Hip-Hop) Twenty One Pilots - Trench (2018) [MP3, 320 kbps CBR] 90ytr90
2 | 0

0 | 2145

11

03.10.2018 17:04

Зарубежный Hard, Progressive, Soft, Melodic, AOR, Folk, Classic Rock (Alternative Rock / Progressive Rock) Muse - The 2nd Law (2012) [MP3, 320 kbps] Jimmy
0 | 0

0 | 2424

16

27.09.2012 04:30

Зарубежный Hard, Progressive, Soft, Melodic, AOR, Folk, Classic Rock (Alternative, Rock, Folk Rock) Valley Of Wolves - Out For Blood (2018) [MP3, 320 kbps CBR] 90ytr90
2 | 0

0 | 1008

3

25.09.2018 15:29

Зарубежный Hard, Progressive, Soft, Melodic, AOR, Folk, Classic Rock (Alternative, Hard Rock) ZoomOut - Sold Out (2018) [MP3, 320 kbps CBR] 90ytr90
0 | 0

0 | 806

1

27.09.2018 08:47

Зарубежный Hard, Progressive, Soft, Melodic, AOR, Folk, Classic Rock (Alternative Metal, Hard Rock) Those Damn Crows - Murder and the Motive (2018) [MP3, 320 kbps CBR] 90ytr90
0 | 0

0 | 859

2

10.11.2018 15:11

Зарубежный Hard, Progressive, Soft, Melodic, AOR, Folk, Classic Rock (Alternative Rock, Hard Rock) Diamante - Coming in Hot (2018) [MP3, 320 kbps CBR] 90ytr90
0 | 0

0 | 1010

3

25.11.2018 18:42

Зарубежный Hard, Progressive, Soft, Melodic, AOR, Folk, Classic Rock (Alternative Rock, Industrial Rock) Emigrate (Richard Kruspe of Rammstein) - A Million Degrees [Limited Edition] (2018) [MP3, 320 kbps CBR] 90ytr90
2 | 0

0 | 1357

7

29.11.2018 16:45


Яндекс.Метрика powered by Sphinx


В Н И М А Н И Е
Сайт не распространяет и не хранит электронные версии произведений, а лишь бесплатно и без коммерческой выгоды (не требуя взамен платы,
SMS и т.д.) предоставляет доступ к создаваемому пользователями каталогу ссылок на торрент-файлы, которые содержат только списки хеш-сумм.
Убедительная просьба с жалобами обращаться напрямую к пользователю, разместившему торрент файл.

Вверх