Loading...
Error

Особые игрушки / Sick for Toys (Дэвид Дель Рио) [2018 г., ужасы, BDRip 720p] MVO (HDRezka Studio) + Original + Sub

Статистика раздачи
Размер:  3,78 GB   |    Зарегистрирован:  6 дней   |    Скачан:  2 раза

Полного источника не было: 6 дней

Сидов:  0  |  0 KB/s  ]   Личеров:  0  |  0 KB/s  ]

* - сиды/пиры с внешних источников

   
 
Автор Сообщение

90ytr90 

08-Апр-2021 03:54

Особые игрушки / Sick for Toys


Название: Особые игрушки
Оригинальное название: Sick for Toys
Год выпуска: 2018
Жанр: Ужасы
Режиссер: Дэвид Дель Рио
Актеры: Камилла Монтгомери, Джон Пол Буркхарт, Джастин Ксавьер Смит, Дэвид Ганнинг, Мелани Томпсон, Моргана Шоу, Кэти Уоллес, Пол Т. Тейлор, Лаура Вельта, Йена Магеррамов

Описание: В центре сюжета Рой, который пытается найти своего хорошего друга Джейсона, пропавшего без вести несколько дней назад. Во время поисков он сталкивается с женщиной по имени Эмилия, которая приглашает Роя к себе домой на ужин. Парень соглашается, но даже не догадывается, что её очень странный брат Эдвард будет присутствовать на свидании. Миловидная Эмилия ведет себя очень по-детски и просто обожает Рождество, главным образом потому, что брат каждый год дарит ей новую «игрушку». Вскоре Рой начинает подозревать, что здесь что-то не так.



Страна: США
Студия: Delco-Cut Productions, Nine Ten Films
Продолжительность: 01:28:55
Перевод: Профессиональный (многоголосый, закадровый) | HDRezka Studio

Формат: MKV
Качество: BDRip 720p
Видео: MPEG-4 AVC, 1280x696 (1.85:1), 5000 kbps, 23.976 fps
Аудио 1: Russian: 48 kHz, AC3, 3/2 (L,C,R,l,r) + LFE ch, 448 kbps | HDRezka Studio
Аудио 2: English: 48 kHz, AC3, 3/2 (L,C,R,l,r) + LFE ch, 640 kbps | Оригинал
Субтитры: Английские (Full)
General
Unique ID : 3333903982282420919805111376035422557 (0x282162836D159EC3B3071F615B3A15D)
Complete name : Sick.for.Toys.2018.BDRip.720p.mkv
Format : Matroska
Format version : Version 4
File size : 3.78 GiB
Duration : 1 h 28 min
Overall bit rate : 6 089 kb/s
Encoded date : UTC 2021-04-07 16:49:06
Writing application : mkvmerge v20.0.0 ('I Am The Sun') 64-bit
Writing library : libebml v1.3.5 + libmatroska v1.4.8

Video
ID : 1
Format : AVC
Format/Info : Advanced Video Codec
Format profile : [email protected]
Format settings : CABAC / 9 Ref Frames
Format settings, CABAC : Yes
Format settings, Reference frames : 9 frames
Codec ID : V_MPEG4/ISO/AVC
Duration : 1 h 28 min
Bit rate : 5 000 kb/s
Width : 1 280 pixels
Height : 696 pixels
Display aspect ratio : 1.85:1
Frame rate mode : Constant
Frame rate : 23.976 (24000/1001) FPS
Color space : YUV
Chroma subsampling : 4:2:0
Bit depth : 8 bits
Scan type : Progressive
Bits/(Pixel*Frame) : 0.234
Stream size : 3.10 GiB (82%)
Title : LoRD
Writing library : x264 core 157 r2935 LoRD
Encoding settings : cabac=1 / ref=9 / deblock=1:-3:-3 / analyse=0x3:0x133 / me=umh / subme=10 / psy=1 / psy_rd=1.00:0.00 / mixed_ref=1 / me_range=32 / chroma_me=1 / trellis=2 / 8x8dct=1 / cqm=0 / deadzone=21,11 / fast_pskip=0 / chroma_qp_offset=-2 / threads=12 / lookahead_threads=2 / sliced_threads=0 / nr=0 / decimate=0 / interlaced=0 / bluray_compat=0 / constrained_intra=0 / bframes=8 / b_pyramid=2 / b_adapt=2 / b_bias=0 / direct=3 / weightb=1 / open_gop=0 / weightp=2 / keyint=250 / keyint_min=23 / scenecut=40 / intra_refresh=0 / rc_lookahead=60 / rc=2pass / mbtree=0 / bitrate=5000 / ratetol=1.0 / qcomp=0.60 / qpmin=0 / qpmax=69 / qpstep=4 / cplxblur=20.0 / qblur=0.5 / vbv_maxrate=50000 / vbv_bufsize=62500 / nal_hrd=none / filler=0 / ip_ratio=1.30 / pb_ratio=1.20 / aq=3:0.80
Language : English
Default : Yes
Forced : No

Audio #1
ID : 2
Format : AC-3
Format/Info : Audio Coding 3
Commercial name : Dolby Digital
Codec ID : A_AC3
Duration : 1 h 28 min
Bit rate mode : Constant
Bit rate : 448 kb/s
Channel(s) : 6 channels
Channel layout : L R C LFE Ls Rs
Sampling rate : 48.0 kHz
Frame rate : 31.250 FPS (1536 SPF)
Compression mode : Lossy
Stream size : 285 MiB (7%)
Title : MVO HDRezka Studio
Language : Russian
Service kind : Complete Main
Default : Yes
Forced : No

Audio #2
ID : 3
Format : AC-3
Format/Info : Audio Coding 3
Commercial name : Dolby Digital
Codec ID : A_AC3
Duration : 1 h 28 min
Bit rate mode : Constant
Bit rate : 640 kb/s
Channel(s) : 6 channels
Channel layout : L R C LFE Ls Rs
Sampling rate : 48.0 kHz
Frame rate : 31.250 FPS (1536 SPF)
Compression mode : Lossy
Stream size : 407 MiB (11%)
Language : English
Service kind : Complete Main
Default : No
Forced : No

Text
ID : 4
Format : UTF-8
Codec ID : S_TEXT/UTF8
Codec ID/Info : UTF-8 Plain Text
Duration : 1 h 23 min
Bit rate : 56 b/s
Count of elements : 1252
Stream size : 34.6 KiB (0%)
Language : English
Default : No
Forced : No

Menu
00:00:00.000 : en:Chapter 1
00:06:35.103 : en:Chapter 2
00:15:19.418 : en:Chapter 3
00:23:53.891 : en:Chapter 4
00:29:48.787 : en:Chapter 5
00:36:45.286 : en:Chapter 6
00:40:02.233 : en:Chapter 7
00:52:20.179 : en:Chapter 8
00:56:27.092 : en:Chapter 9
01:07:48.439 : en:Chapter 10
01:15:16.303 : en:Chapter 11
01:25:23.952 : en:Chapter 12

Этот торрент недоступен для скачивания без регистрации, однако доступен по публичной magnet-ссылке (источники с публичных трекеров). Перед использованием ссылки прочтите, пожалуйста Пользовательское соглашение, а также как можно дольше оставайтесь на раздаче! Для того, чтобы скачать сам торрент-файл (который видит больше источников), а также для того, чтобы поблагодарить релизера, вам необходимо зарегистрироваться. Если регистрироваться лень - вы можете также попробовать скачать релиз по нашим партнерским ссылкам ниже. Кроме того, зарегистрированным пользователям не показывается всплывающая реклама при скачивании.

[underver.se].t203973.torrent
Трекер: Зарегистрирован   [ 08.04.2021 03:54 ]  

Статус: * не проверено
Поблагодарили: пока никто не поблагодарил...
Тип торрента: публичный - доступные источники с открытых трекеров: 
Размер: 3,78 GB (занимает 0,86 DVDR, для записи нужно 1 болванка DVDR/RW)
 
 
Похожие темы
Форум Тема Автор Торрент Отв. Посл. сооб.
T Зарубежное кино [DVDRip, Low-Res HDRip, и т.д.] Особые игрушки / Sick for Toys (Дэвид Дель Рио) [2018 г., ужасы, WEB-DLRip] MVO (Синема УС) makkol
1 | 0

0 | 576

6

08.09.2018 10:43

T Зарубежное кино [DVDRip, Low-Res HDRip, и т.д.] Особые игрушки / Sick for Toys (Дэвид Дель Рио) [2018 г., Ужасы, BDRip-AVC] MVO (HDRezka Studio) + Original + Sub (Ukr, Eng) tiptop
2 | 0

0 | 219

6

08.04.2021 15:48

T Зарубежное кино [HDDVDRip / BDRip / WEB-DL / HDTV 1080/720р] Особые игрушки / Sick for Toys (Дэвид Дель Рио) [2018 г., ужасы, WEB-DL 720p] MVO (Синема УС) makkol
0 | 0

0 | 560

9

08.09.2018 10:47

* Зарубежное кино [HDDVDRip / BDRip / WEB-DL / HDTV 1080/720р] Особые игрушки / Sick for Toys (Дэвид Дель Рио) [2018 г., ужасы, BDRip 1080p] MVO (HDRezka Studio) + Original + Sub 90ytr90
14 | 0

0 | 73

4

08.04.2021 05:44


Яндекс.Метрика powered by Sphinx


В Н И М А Н И Е
Сайт не распространяет и не хранит электронные версии произведений, а лишь бесплатно и без коммерческой выгоды (не требуя взамен платы,
SMS и т.д.) предоставляет доступ к создаваемому пользователями каталогу ссылок на торрент-файлы, которые содержат только списки хеш-сумм.
Убедительная просьба с жалобами обращаться напрямую к пользователю, разместившему торрент файл.

Вверх