Loading...
Error

Дом на пляже / The Beach House (Роджер Споттисвуд / Roger Spottiswoode) [2018 г., драма, WEB-DL 1080p] MVO (HDRezka Studio) + Original (Eng) + Sub (Rus, Eng)

Статистика раздачи
Размер:  4,75 GB   |    Зарегистрирован:  5 дней   |    Скачан:  1 раз

Полного источника не было: 1 день 3 часа

Сидов:  0  |  0 KB/s  ]   Личеров:  0  |  0 KB/s  ]

* - сиды/пиры с внешних источников

   
 
Автор Сообщение

90ytr90 

23-Фев-2021 11:30

Дом на пляже / The Beach House


Страна: США
Год выпуска: 2018
Жанр: драма
Продолжительность: 01:31:50
Озвучивание:
  • профессиональное (многоголосое закадровое) [HDRezka Studio]
  • оригинальная звуковая дорожка [английский]

Режиссёр: Роджер Споттисвуд / Roger Spottiswoode

В ролях:
    Энди МакДауэлл, Минка Келли, Чад Майкл Мюррэй, Макензи Вега, Донна Биско, Донни Боас, Алишия Окс, Чейз Стоукс


Сюжет фильма:
    В центре сюжета фильма, основанного на одноименном романе американской писательницы Мэри Элис Монро, оказывается Каррета «Кара» Рудленд. Потеряв престижную работу в Чикаго, она принимает предложение мамы вернуться в родной городок, чтобы починить семейный пляжный дом. Лави, мать главной героини, всю жизнь посвятила защите диких морских черепах, чем постоянно вызывала ревность родной дочери. Но когда возникает угроза уничтожения нескольких сотен черепах из-за разрушительного шторма, Кара и Лави сообща стараются спасти морских обитателей от верной гибели.

  • Дата мировой премьеры: 28 апреля 2018
             
Качество видео: WEB-DL 1080p
Формат: MKV
Видео: AVC, 1920x1080 (16:9), 6319 kbps, 23.976 (24000/1001) fps, 0.127 bit/pixel
Аудио #1: AC3, 448 kbps, 6 ch, 48 kHz, MVO [HDRezka Studio]
Аудио #2: E-AC3, 640 kbps, 6 ch, 48 kHz, Original [English]
Субтитры: Russian (forced), English
General 
Unique ID : 80793737093690695331697363098226232120 (0x3CC84EC9475757E0B1191B7C51E98B38)
Complete name : The.Beach.House.2018.AMZN.WEB-DL.1080p.mkv
Format : Matroska
Format version : Version 4
File size : 4.75 GiB
Duration : 1 h 31 min
Overall bit rate : 7 410 kb/s
Encoded date : UTC 2021-02-23 06:52:12
Writing application : mkvmerge v20.0.0 ('I Am The Sun') 64-bit
Writing library : libebml v1.3.5 + libmatroska v1.4.8

Video
ID : 1
Format : AVC
Format/Info : Advanced Video Codec
Format profile : [email protected]
Format settings : CABAC / 4 Ref Frames
Format settings, CABAC : Yes
Format settings, Reference frames : 4 frames
Codec ID : V_MPEG4/ISO/AVC
Duration : 1 h 31 min
Bit rate : 6 319 kb/s
Width : 1 920 pixels
Height : 1 080 pixels
Display aspect ratio : 16:9
Frame rate mode : Constant
Frame rate : 23.976 (24000/1001) FPS
Color space : YUV
Chroma subsampling : 4:2:0
Bit depth : 8 bits
Scan type : Progressive
Bits/(Pixel*Frame) : 0.127
Stream size : 4.05 GiB (85%)
Title : ABM
Language : English
Default : Yes
Forced : No
Color range : Limited
Color primaries : BT.709
Transfer characteristics : BT.709
Matrix coefficients : BT.709

Audio #1
ID : 2
Format : AC-3
Format/Info : Audio Coding 3
Commercial name : Dolby Digital
Codec ID : A_AC3
Duration : 1 h 31 min
Bit rate mode : Constant
Bit rate : 448 kb/s
Channel(s) : 6 channels
Channel layout : L R C LFE Ls Rs
Sampling rate : 48.0 kHz
Frame rate : 31.250 FPS (1536 SPF)
Compression mode : Lossy
Stream size : 294 MiB (6%)
Title : MVO HDRezka Studio
Language : Russian
Service kind : Complete Main
Default : Yes
Forced : No

Audio #2
ID : 3
Format : E-AC-3
Format/Info : Enhanced AC-3
Commercial name : Dolby Digital Plus
Codec ID : A_EAC3
Duration : 1 h 31 min
Bit rate mode : Constant
Bit rate : 640 kb/s
Channel(s) : 6 channels
Channel layout : L R C LFE Ls Rs
Sampling rate : 48.0 kHz
Frame rate : 31.250 FPS (1536 SPF)
Compression mode : Lossy
Stream size : 420 MiB (9%)
Language : English
Service kind : Complete Main
Default : No
Forced : No

Text #1
ID : 4
Format : UTF-8
Codec ID : S_TEXT/UTF8
Codec ID/Info : UTF-8 Plain Text
Duration : 1 h 28 min
Bit rate : 0 b/s
Count of elements : 8
Stream size : 419 Bytes (0%)
Title : forced
Language : Russian
Default : Yes
Forced : No

Text #2
ID : 5
Format : UTF-8
Codec ID : S_TEXT/UTF8
Codec ID/Info : UTF-8 Plain Text
Duration : 1 h 30 min
Bit rate : 64 b/s
Count of elements : 1672
Stream size : 42.3 KiB (0%)
Language : English
Default : No
Forced : No


pic pic pic pic pic pic

Этот торрент недоступен для скачивания без регистрации, однако доступен по публичной magnet-ссылке (источники с публичных трекеров). Перед использованием ссылки прочтите, пожалуйста Пользовательское соглашение, а также как можно дольше оставайтесь на раздаче! Для того, чтобы скачать сам торрент-файл (который видит больше источников), а также для того, чтобы поблагодарить релизера, вам необходимо зарегистрироваться. Если регистрироваться лень - вы можете также попробовать скачать релиз по нашим партнерским ссылкам ниже. Кроме того, зарегистрированным пользователям не показывается всплывающая реклама при скачивании.

[underver.se].t200398.torrent
Трекер: Зарегистрирован   [ 23.02.2021 11:30 ]  

Статус: проверено (by 90ytr90 at 23.02.2021 12:15)
Поблагодарили: пока никто не поблагодарил...
Тип торрента: публичный - доступные источники с открытых трекеров: 
Размер: 4,75 GB (занимает 1,09 DVDR, для записи нужно 2 болванки DVDR/RW)
 
 

Яндекс.Метрика powered by Sphinx


В Н И М А Н И Е
Сайт не распространяет и не хранит электронные версии произведений, а лишь бесплатно и без коммерческой выгоды (не требуя взамен платы,
SMS и т.д.) предоставляет доступ к создаваемому пользователями каталогу ссылок на торрент-файлы, которые содержат только списки хеш-сумм.
Убедительная просьба с жалобами обращаться напрямую к пользователю, разместившему торрент файл.

Вверх