Loading...
Error

Непосредственно Каха! (Виктор Шамиров) [2020 г., комедия, WEBRip 1080p]

Статистика раздачи
Размер:  5,2 GB   |    Зарегистрирован:  2 месяца 10 дней   |    Скачан:  161 раз
Сидов:  10  |  154 KB/s  ]   Личеров:  3  |  2 MB/s  ]

* - сиды/пиры с внешних источников

   
 
Автор Сообщение

90ytr90 

16-Дек-2020 14:05

Непосредственно Каха!


Название: Непосредственно Каха!
Год выпуска: 2020
Жанр: Комедия
Режиссер-постановщик: Виктор Шамиров
Актеры: Артем Карокозян, Артем Калайджян, Марина Калецкая, Людмила Артемьева, Микаэл Погосян, Нана Муштакова, Милена Цховреба-Агранович, Тамара Турава, Вартан Даниелян, Артур Оганесян

Описание: Каха запал на прекрасную Софу, но, чтобы подобраться к её сердцу, ему нужно на своей «копейке» обогнать новенькую BMW Руслана и забить на дружбу с Серго. Что же выберет Каха – любовь или дружбу?



Страна: Россия
Студия: Фильмы навсегда, START Studio
Продолжительность: 01:48:23
Оригинальное: Оригинал

Качество: WEBRip 1080p
Формат: MKV
Видео: 1920x1080 (16:9), 24 fps, x264, 6480 Kbps avg, 0.130 bit/pixel
Звук: AC3, 48 kHz, 2 ch, ~384.00 kbps avg
Субтитры: нет
General
Unique ID: 160682456480172651903978896108098188021 (0x78E250C127426CE4E1A0F474A9D072F5)
Complete name: G:Work HubNeposredstvenno.Kaha.2020.O.WEB-DL.1080p.ELEKTRI4KA.UNIONGANG.mkv
Format: Matroska
Format version: Version 4
File size: 5.20 GiB
Duration: 1 h 48 min
Overall bit rate: 6 870 kb/s
Encoded date: UTC 2020-12-14 09:50:11
Writing application: mkvmerge v47.0.0 ('Black Flag') 64-bit
Writing library: libebml v1.3.10 + libmatroska v1.5.2

Video
ID: 1
Format: AVC
Format/Info: Advanced Video Codec
Format profile: [email protected]
Format settings: CABAC / 4 Ref Frames
Format settings, CABAC: Yes
Format settings, Reference frames: 4 frames
Codec ID: V_MPEG4/ISO/AVC
Duration: 1 h 48 min
Bit rate: 6 480 kb/s
Width: 1 920 pixels
Height: 1 080 pixels
Display aspect ratio: 16:9
Frame rate mode: Constant
Frame rate: 24.000 FPS
Color space: YUV
Chroma subsampling: 4:2:0
Bit depth: 8 bits
Scan type: Progressive
Bits/(Pixel*Frame): 0.130
Stream size: 4.91 GiB (94%)
Writing library: x264 core 152
Encoding settings: cabac=1 / ref=2 / deblock=1:0:0 / analyse=0x3:0x113 / me=hex / subme=6 / psy=1 / psy_rd=1.00:0.00 / mixed_ref=1 / me_range=16 / chroma_me=1 / trellis=1 / 8x8dct=1 / cqm=0 / deadzone=21, 11 / fast_pskip=1 / chroma_qp_offset=-2 / threads=12 / lookahead_threads=2 / sliced_threads=0 / nr=0 / decimate=1 / interlaced=0 / bluray_compat=0 / constrained_intra=0 / bframes=3 / b_pyramid=2 / b_adapt=1 / b_bias=0 / direct=1 / weightb=1 / open_gop=0 / weightp=1 / keyint=250 / keyint_min=24 / scenecut=40 / intra_refresh=0 / rc_lookahead=30 / rc=abr / mbtree=1 / bitrate=6480 / ratetol=1.0 / qcomp=0.60 / qpmin=0 / qpmax=69 / qpstep=4 / vbv_maxrate=7776 / vbv_bufsize=15552 / nal_hrd=none / filler=0 / ip_ratio=1.40 / aq=1:1.00
Default: Yes
Forced: No
Color range: Limited
Color primaries: BT.709
Transfer characteristics: BT.709
Matrix coefficients: BT.709

Audio
ID: 2
Format: AC-3
Format/Info: Audio Coding 3
Commercial name: Dolby Digital
Codec ID: A_AC3
Duration: 1 h 48 min
Bit rate mode: Constant
Bit rate: 384 kb/s
Channel(s): 2 channels
Channel layout: L R
Sampling rate: 48.0 kHz
Frame rate: 31.250 FPS (1536 SPF)
Compression mode: Lossy
Delay relative to video: -83 ms
Stream size: 298 MiB (6%)
Service kind: Complete Main
Default: Yes
Forced: No
Релиз группы:

Этот торрент недоступен для скачивания без регистрации, однако доступен по публичной magnet-ссылке (источники с публичных трекеров). Перед использованием ссылки прочтите, пожалуйста Пользовательское соглашение, а также как можно дольше оставайтесь на раздаче! Для того, чтобы скачать сам торрент-файл (который видит больше источников), а также для того, чтобы поблагодарить релизера, вам необходимо зарегистрироваться. Если регистрироваться лень - вы можете также попробовать скачать релиз по нашим партнерским ссылкам ниже. Кроме того, зарегистрированным пользователям не показывается всплывающая реклама при скачивании.

[underver.se].t192564.torrent
Трекер: Зарегистрирован   [ 16.12.2020 14:05 ]  

Статус: T временная (by Паукан at 26.12.2020 06:09)
Поблагодарили: 2 человека
Тип торрента: публичный - доступные источники с открытых трекеров: 
Размер: 5,2 GB (занимает 1,19 DVDR, для записи нужно 2 болванки DVDR/RW)
 
 
Похожие темы
Форум Тема Автор Торрент Отв. Посл. сооб.
T Наше кино [DVDRip, Low-Res HDRip, и т.д.] Непосредственно Каха! (Виктор Шамиров) [2020 г., комедия, WEBRip] 90ytr90
1057 | 16

0 | 5443

105

14.12.2020 13:55

T Наше кино [DVDRip, Low-Res HDRip, и т.д.] Непосредственно Каха! (Виктор Шамиров) [2020 г., комедия, WEBRip-AVC] 90ytr90
252 | 0

0 | 23318

78

16.12.2020 14:06

Наше кино [DVDRip, Low-Res HDRip, и т.д.] Непосредственно Каха! (Виктор Шамиров) [2020 г., комедия, WEB-DLRip] Original (iTunes) makkol
69 | 0

0 | 2701

15

31.12.2020 15:06

Наше кино [DVDRip, Low-Res HDRip, и т.д.] Непосредственно Каха! (Виктор Шамиров) [2020 г., комедия, WEB-DLRip-AVC] Original (iTunes) makkol
2065 | 25

0 | 3700

57

31.12.2020 15:11

Наше кино [HDDVDRip / BDRip / WEB-DL / HDTV 1080/720р] Непосредственно Каха! (Виктор Шамиров) [2020 г., комедия, WEB-DL 1080p] Original (iTunes) makkol
256 | 9

0 | 4451

76

31.12.2020 15:17


Яндекс.Метрика powered by Sphinx


В Н И М А Н И Е
Сайт не распространяет и не хранит электронные версии произведений, а лишь бесплатно и без коммерческой выгоды (не требуя взамен платы,
SMS и т.д.) предоставляет доступ к создаваемому пользователями каталогу ссылок на торрент-файлы, которые содержат только списки хеш-сумм.
Убедительная просьба с жалобами обращаться напрямую к пользователю, разместившему торрент файл.

Вверх