Loading...
Error

Дедушка НЕлегкого поведения / Где моя челюсть, чувак / The War with Grandpa (Тим Хилл) [2020 г., комедия, семейный, BD-Remux] Dub (iTunes) + Original + Sub

Статистика раздачи
Размер:  17,95 GB   |    Зарегистрирован:  3 месяца 7 дней   |    Скачан:  11 раз

Полного источника не было: 6 дней

Сидов:  0  |  0 KB/s  ]   Личеров:  0  |  0 KB/s  ]

* - сиды/пиры с внешних источников

   
 
Автор Сообщение

makkol Пол:Муж

29-Ноя-2020 21:43

Дедушка НЕлегкого поведения / Где моя челюсть, чувак / The War with Grandpa
«Бумер VS Зумер. Кто победит в этой схватке?»


Год выпуска: 2020
Жанр: комедия, семейный
Производство: США [Marro Films, Emmett/Furla/Oasis Films (EFO Films), TRI G]
Режиссер: Тим Хилл
В ролях: Роберт Де Ниро, Оакс Фигли, Кристофер Уокен, Ума Турман, Джейн Сеймур, Роб Риггл, Лора Марано, Колин Форд, Т.Дж. МакГиббон, Чич Марин
Сюжет фильма:
Пенсионер Эд подрался с охранником супермаркета, после чего по совету полиции дочь перевозит его в дом своей семьи. Сам он от переезда не в восторге, а его 12-летний внук Питер просто в бешенстве, ведь деду отдали его любимую комнату, а самого парня переселили на чердак. Не желая мириться с этой вопиющей несправедливостью и не думая о последствиях, мальчик объявляет дедуле войну. Но пенсионер оказывается не так прост, ведь он-то был на настоящей войне и как старый солдат готов нести потери.

  • Мировая премьера: 27 августа 2020
  • Российская премьера: 29 октября 2020


Качество видео: BD-Remux

Продолжительность: 01:38:10
Формат: MKV
Видео: MPEG-4 AVC, 1920x1080 (16:9), 24.000 fps, 23.9 Mbps
Аудио #1: русский, дублированный (iTunes), AC3 5.1, 48 kHz, 384 kbps
Аудио #2: английский, оригинал, DTS-HD MA 5.1, 48 kHz, 1891 kbps
Субтитры: русские, английские вшитые отключаемые

Релиз:

Код:

General
Unique ID                   : 223791747061766083229945348627489634014 (0xA85CB902B0AFE66A547F26571AC036DE)
Complete name               : The.War.with.Grandpa.2020.BDREMUX.1080p.seleZen.mkv
Format                      : Matroska
Format version              : Version 4
File size                   : 17.9 GiB
Duration                    : 1 h 38 min
Overall bit rate mode       : Variable
Overall bit rate            : 26.2 Mb/s
Movie name                  : The.War.with.Grandpa.2020 from seleZen
Encoded date                : UTC 2020-11-29 19:49:31
Writing application         : mkvmerge v40.0.0 ('Old Town Road + Pony') 64-bit
Writing library             : libebml v1.3.9 + libmatroska v1.5.2
 
Video
ID                          : 1
Format                      : AVC
Format/Info                 : Advanced Video Codec
Format profile              : [email protected]
Format settings             : CABAC / 4 Ref Frames
Format settings, CABAC      : Yes
Format settings, Reference  : 4 frames
Format settings, GOP        : M=3, N=12
Codec ID                    : V_MPEG4/ISO/AVC
Duration                    : 1 h 38 min
Bit rate mode               : Variable
Bit rate                    : 23.9 Mb/s
Maximum bit rate            : 38.0 Mb/s
Width                       : 1 920 pixels
Height                      : 1 080 pixels
Display aspect ratio        : 16:9
Frame rate mode             : Constant
Frame rate                  : 24.000 FPS
Color space                 : YUV
Chroma subsampling          : 4:2:0
Bit depth                   : 8 bits
Scan type                   : Progressive
Bits/(Pixel*Frame)          : 0.480
Stream size                 : 16.4 GiB (91%)
Language                    : English
Default                     : Yes
Forced                      : No
 
Audio #1
ID                          : 2
Format                      : AC-3
Format/Info                 : Audio Coding 3
Commercial name             : Dolby Digital
Codec ID                    : A_AC3
Duration                    : 1 h 37 min
Bit rate mode               : Constant
Bit rate                    : 384 kb/s
Channel(s)                  : 6 channels
Channel layout              : L R C LFE Ls Rs
Sampling rate               : 48.0 kHz
Frame rate                  : 31.250 FPS (1536 SPF)
Compression mode            : Lossy
Stream size                 : 269 MiB (1%)
Title                       : iTunes
Language                    : Russian
Service kind                : Complete Main
Default                     : Yes
Forced                      : Yes
 
Audio #2
ID                          : 3
Format                      : DTS XLL
Format/Info                 : Digital Theater Systems
Commercial name             : DTS-HD Master Audio
Codec ID                    : A_DTS
Duration                    : 1 h 38 min
Bit rate mode               : Variable
Bit rate                    : 1 891 kb/s
Channel(s)                  : 6 channels
Channel layout              : C L R Ls Rs LFE
Sampling rate               : 48.0 kHz
Frame rate                  : 93.750 FPS (512 SPF)
Bit depth                   : 16 bits
Compression mode            : Lossless
Stream size                 : 1.30 GiB (7%)
Title                       : Original
Language                    : English
Default                     : No
Forced                      : No
 
Text #1
ID                          : 4
Format                      : UTF-8
Codec ID                    : S_TEXT/UTF8
Codec ID/Info               : UTF-8 Plain Text
Duration                    : 1 h 32 min
Bit rate                    : 100 b/s
Count of elements           : 1200
Stream size                 : 67.8 KiB (0%)
Title                       : Full
Language                    : Russian
Default                     : No
Forced                      : No
 
Text #2
ID                          : 5
Format                      : UTF-8
Codec ID                    : S_TEXT/UTF8
Codec ID/Info               : UTF-8 Plain Text
Duration                    : 1 h 32 min
Bit rate                    : 65 b/s
Count of elements           : 1335
Stream size                 : 44.5 KiB (0%)
Title                       : Full
Language                    : English
Default                     : No
Forced                      : No
 
Menu
00:00:00.000                : en:Chapter 01
00:07:50.542                : en:Chapter 02
00:15:13.833                : en:Chapter 03
00:22:51.875                : en:Chapter 04
00:31:50.833                : en:Chapter 05
00:39:59.250                : en:Chapter 06
00:46:21.500                : en:Chapter 07
00:51:08.917                : en:Chapter 08
00:58:39.917                : en:Chapter 09
01:04:17.958                : en:Chapter 10
01:11:56.667                : en:Chapter 11
01:22:03.875                : en:Chapter 12

Этот торрент недоступен для скачивания без регистрации, однако доступен по публичной magnet-ссылке (источники с публичных трекеров). Перед использованием ссылки прочтите, пожалуйста Пользовательское соглашение, а также как можно дольше оставайтесь на раздаче! Для того, чтобы скачать сам торрент-файл (который видит больше источников), а также для того, чтобы поблагодарить релизера, вам необходимо зарегистрироваться. Если регистрироваться лень - вы можете также попробовать скачать релиз по нашим партнерским ссылкам ниже. Кроме того, зарегистрированным пользователям не показывается всплывающая реклама при скачивании.

[underver.se].t190925.torrent
Трекер: Зарегистрирован   [ 29.11.2020 21:43 ]  

Статус: проверено (by makkol at 29.11.2020 21:43)
Поблагодарили: 1 человек
Тип торрента: публичный - доступные источники с открытых трекеров: 
Размер: 17,95 GB (занимает 4,1 DVDR, для записи нужно 5 болванок DVDR/RW)
 
 
Похожие темы
Форум Тема Автор Торрент Отв. Посл. сооб.
Зарубежное кино [DVDRip, Low-Res HDRip, и т.д.] Дедушка НЕлегкого поведения / Где моя челюсть, чувак / War with Grandpa (Тим Хилл) [2020 г., комедия, семейный, WEB-DLRip] MVO (AlphaProject) makkol
23 | 0

1 | 807

56

29.08.2020 21:48

Зарубежное кино [DVDRip, Low-Res HDRip, и т.д.] Дедушка НЕлегкого поведения / Где моя челюсть, чувак / The War with Grandpa (Тим Хилл) [2020 г., комедия, семейный, HDRip] Dub (iTunes) makkol
2 | 0

0 | 424

9

29.11.2020 21:20

Зарубежное кино [DVDRip, Low-Res HDRip, и т.д.] Дедушка НЕлегкого поведения / Где моя челюсть, чувак / The War with Grandpa (Тим Хилл / Tim Hill) [2020 г., комедия, семейный, BDRip-AVC] Dub (iTunes) + Original (Eng) + Sub (Rus, Eng) 90ytr90
214 | 1

0 | 261

11

30.11.2020 08:55

Зарубежное кино [DVDRip, Low-Res HDRip, и т.д.] Дедушка НЕлегкого поведения / Где моя челюсть, чувак / The War with Grandpa (Тим Хилл / Tim Hill) [2020 г., комедия, семейный, BDRip] Dub (iTunes) + Original (Eng) 90ytr90
69 | 3

0 | 232

3

30.11.2020 08:56

Зарубежное кино [DVDRip, Low-Res HDRip, и т.д.] Дедушка НЕлегкого поведения / Где моя челюсть, чувак / The War with Grandpa (Тим Хилл / Tim Hill) [2020 г., комедия, семейный, BDRip-AVC] Dub (iTunes) + Sub (Rus, Eng) 90ytr90
71 | 4

0 | 296

14

01.12.2020 11:51

Зарубежное кино [HDDVDRip / BDRip / WEB-DL / HDTV 1080/720р] Дедушка НЕлегкого поведения / Где моя челюсть, чувак / War with Grandpa (Тим Хилл) [2020 г., комедия, семейный, WEB-DL 1080p] MVO (AlphaProject) makkol
38 | 0

1 | 860

59

29.08.2020 21:56

Зарубежное кино [HDDVDRip / BDRip / WEB-DL / HDTV 1080/720р] Дедушка НЕлегкого поведения / Где моя челюсть, чувак / The War with Grandpa (Тим Хилл) [2020 г., комедия, семейный, BDRip 720p] Dub (iTunes) + Original + Sub makkol
222 | 9

0 | 399

12

29.11.2020 21:29

Зарубежное кино [HDDVDRip / BDRip / WEB-DL / HDTV 1080/720р] Дедушка НЕлегкого поведения / Где моя челюсть, чувак / The War with Grandpa (Тим Хилл) [2020 г., комедия, семейный, BDRip 1080p] Dub (iTunes) + Original + Sub makkol
163 | 7

0 | 404

15

29.11.2020 21:36

Зарубежное кино [HDDVDRip / BDRip / WEB-DL / HDTV 1080/720р] Дедушка НЕлегкого поведения / Где моя челюсть, чувак / The War with Grandpa (Тим Хилл / Tim Hill) [2020 г., комедия, семейный, BDRip 1080p] Dub (iTunes) + Original (Eng) + Sub (Rus, Eng) 90ytr90
220 | 2

0 | 439

17

02.12.2020 18:27


Яндекс.Метрика powered by Sphinx


В Н И М А Н И Е
Сайт не распространяет и не хранит электронные версии произведений, а лишь бесплатно и без коммерческой выгоды (не требуя взамен платы,
SMS и т.д.) предоставляет доступ к создаваемому пользователями каталогу ссылок на торрент-файлы, которые содержат только списки хеш-сумм.
Убедительная просьба с жалобами обращаться напрямую к пользователю, разместившему торрент файл.

Вверх