Loading...
Error

Дедушка НЕлегкого поведения / Где моя челюсть, чувак / The War with Grandpa (Тим Хилл) [2020 г., комедия, семейный, BDRip 1080p] Dub (iTunes) + Original + Sub

Статистика раздачи
Размер:  11,31 GB   |    Зарегистрирован:  3 месяца 7 дней   |    Скачан:  15 раз
Сидов:  1  |  327 KB/s  ]   Личеров:  0  |  0 KB/s  ]

* - сиды/пиры с внешних источников

   
 
Автор Сообщение

makkol Пол:Муж

29-Ноя-2020 21:36

Дедушка НЕлегкого поведения / Где моя челюсть, чувак / The War with Grandpa
«Бумер VS Зумер. Кто победит в этой схватке?»


Год выпуска: 2020
Жанр: комедия, семейный
Производство: США [Marro Films, Emmett/Furla/Oasis Films (EFO Films), TRI G]
Режиссер: Тим Хилл
В ролях: Роберт Де Ниро, Оакс Фигли, Кристофер Уокен, Ума Турман, Джейн Сеймур, Роб Риггл, Лора Марано, Колин Форд, Т.Дж. МакГиббон, Чич Марин
Сюжет фильма:
Пенсионер Эд подрался с охранником супермаркета, после чего по совету полиции дочь перевозит его в дом своей семьи. Сам он от переезда не в восторге, а его 12-летний внук Питер просто в бешенстве, ведь деду отдали его любимую комнату, а самого парня переселили на чердак. Не желая мириться с этой вопиющей несправедливостью и не думая о последствиях, мальчик объявляет дедуле войну. Но пенсионер оказывается не так прост, ведь он-то был на настоящей войне и как старый солдат готов нести потери.

  • Мировая премьера: 27 августа 2020
  • Российская премьера: 29 октября 2020


Качество видео: BDRip 1080p

Продолжительность: 01:38:10
Формат: MKV
Видео: MPEG-4 AVC, 1920x1036 (1.85:1), 24.000 fps, 14.6 Mbps
Аудио #1: русский, дублированный (iTunes), AC3 5.1, 48 kHz, 384 kbps
Аудио #2: английский, оригинал, DTS 5.1, 48 kHz, 1509 kbps
Субтитры: русские вшитые отключаемые

Релиз:

Код:

Общее
Уникальный идентификатор                 : 190747093660723260484119332097959182054 (0x8F808DCF935ACF04B4BC5ED2D3B8BEE6)
Полное имя                               : The.War.with.Grandpa.2020.BDRip.1080p.mkv
Формат                                   : Matroska
Версия формата                           : Version 4
Размер файла                             : 11,3 Гбайт
Продолжительность                        : 1 ч. 38 м.
Общий поток                              : 16,5 Мбит/сек
Название фильма                          : .ELEKTRI4KA.UNIONGANG.
Дата кодирования                         : UTC 2020-11-29 19:16:29
Программа кодирования                    : mkvmerge v8.3.0 ('Over the Horizon') 64bit
Библиотека кодирования                   : libebml v1.3.1 + libmatroska v1.4.2

Видео
Идентификатор                            : 1
Формат                                   : AVC
Формат/Информация                        : Advanced Video Codec
Профиль формата                          : [email protected]
Настройки формата                        : CABAC / 4 Ref Frames
Параметр CABAC формата                   : Да
Параметр RefFrames формата               : 4 кадра
Идентификатор кодека                     : V_MPEG4/ISO/AVC
Продолжительность                        : 1 ч. 38 м.
Битрейт                                  : 14,6 Мбит/сек
Ширина                                   : 1920 пикселей
Высота                                   : 1036 пикселей
Соотношение сторон                       : 1,85:1
Режим частоты кадров                     : Постоянный
Частота кадров                           : 24,000 кадра/сек
Цветовое пространство                    : YUV
Субдискретизация насыщенности            : 4:2:0
Битовая глубина                          : 8 бит
Тип развёртки                            : Прогрессивная
Бит/(Пиксели*Кадры)                      : 0.306
Размер потока                            : 10,0 Гбайт (89%)
Заголовок                                : .ELEKTRI4KA.UNIONGANG.
Библиотека кодирования                   : x264 core 161 r3018+53 ~ Encoded by Mocunaman in Portugal
Настройки программы                      : cabac=1 / ref=4 / deblock=1:-3:-3 / analyse=0x3:0x113 / me=umh / subme=11 / psy=1 / fade_compensate=0.00 / psy_rd=1.00:0.00 / mixed_ref=1 / me_range=32 / chroma_me=1 / trellis=2 / 8x8dct=1 / cqm=0 / deadzone=21,11 / fast_pskip=0 / chroma_qp_offset=-2 / threads=32 / lookahead_threads=5 / sliced_threads=0 / nr=0 / decimate=0 / interlaced=0 / bluray_compat=0 / constrained_intra=0 / fgo=0 / bframes=8 / b_pyramid=2 / b_adapt=2 / b_bias=0 / direct=3 / weightb=1 / open_gop=0 / weightp=2 / keyint=250 / keyint_min=24 / scenecut=40 / intra_refresh=0 / rc_lookahead=60 / rc=crf / mbtree=0 / crf=16.3000 / qcomp=0.65 / qpmin=0:0:0 / qpmax=69:69:69 / qpstep=4 / vbv_maxrate=62500 / vbv_bufsize=78125 / crf_max=0.0 / nal_hrd=none / filler=0 / ip_ratio=1.30 / pb_ratio=1.20 / aq=3:0.85 / aq-sensitivity=10.00 / aq-factor=1.00:1.00:1.00 / aq2=0 / aq3=0 / zones=17454,18606,crf=15.8/19470,21931,crf=15.8/31734,34694,crf=15.8/38896,43192,crf=15.8/49054,49760,crf=15.8/54386,57509,crf=15.8/60263,63242,crf=15.8/92591,93659,crf=15.8
Язык                                     : English
Default                                  : Да
Forced                                   : Нет
Цветовой диапазон                        : Limited
Основные цвета                           : BT.709
Характеристики трансфера                 : BT.709
Коэффициенты матрицы                     : BT.709

Аудио #1
Идентификатор                            : 2
Формат                                   : AC-3
Формат/Информация                        : Audio Coding 3
Коммерческое название                    : Dolby Digital
Идентификатор кодека                     : A_AC3
Продолжительность                        : 1 ч. 37 м.
Вид битрейта                             : Постоянный
Битрейт                                  : 384 Кбит/сек
Каналы                                   : 6 каналов
ChannelLayout                            : L R C LFE Ls Rs
Частота                                  : 48,0 КГц
Частота кадров                           : 31,250 кадров/сек (1536 SPF)
Метод сжатия                             : С потерями
Размер потока                            : 269 Мбайт (2%)
Заголовок                                : DUB (iTunes)
Язык                                     : Russian
ServiceKind/String                       : Complete Main
Default                                  : Да
Forced                                   : Да

Аудио #2
Идентификатор                            : 3
Формат                                   : DTS
Формат/Информация                        : Digital Theater Systems
Идентификатор кодека                     : A_DTS
Продолжительность                        : 1 ч. 38 м.
Вид битрейта                             : Постоянный
Битрейт                                  : 1509 Кбит/сек
Каналы                                   : 6 каналов
ChannelLayout                            : C L R Ls Rs LFE
Частота                                  : 48,0 КГц
Частота кадров                           : 93,750 кадра/сек (512 SPF)
Битовая глубина                          : 16 бит
Метод сжатия                             : С потерями
Размер потока                            : 1,03 Гбайт (9%)
Заголовок                                : DTS 5.1
Язык                                     : English
Default                                  : Нет
Forced                                   : Нет

Текст
Идентификатор                            : 4
Формат                                   : UTF-8
Идентификатор кодека                     : S_TEXT/UTF8
Идентификатор кодека/Информация          : UTF-8 Plain Text
Продолжительность                        : 1 ч. 32 м.
Битрейт                                  : 113 бит/сек
ElementCount                             : 1328
Размер потока                            : 76,8 Кбайт (0%)
Заголовок                                : Full
Язык                                     : Russian
Default                                  : Да
Forced                                   : Нет

Меню
00:00:00.000                             : en:Chapter 01
00:07:50.542                             : en:Chapter 02
00:15:13.833                             : en:Chapter 03
00:22:51.875                             : en:Chapter 04
00:31:50.833                             : en:Chapter 05
00:39:59.250                             : en:Chapter 06
00:46:21.500                             : en:Chapter 07
00:51:08.917                             : en:Chapter 08
00:58:39.917                             : en:Chapter 09
01:04:17.958                             : en:Chapter 10
01:11:56.667                             : en:Chapter 11
01:22:03.875                             : en:Chapter 12

Этот торрент недоступен для скачивания без регистрации, однако доступен по публичной magnet-ссылке (источники с публичных трекеров). Перед использованием ссылки прочтите, пожалуйста Пользовательское соглашение, а также как можно дольше оставайтесь на раздаче! Для того, чтобы скачать сам торрент-файл (который видит больше источников), а также для того, чтобы поблагодарить релизера, вам необходимо зарегистрироваться. Если регистрироваться лень - вы можете также попробовать скачать релиз по нашим партнерским ссылкам ниже. Кроме того, зарегистрированным пользователям не показывается всплывающая реклама при скачивании.

[underver.se].t190924.torrent
Трекер: Зарегистрирован   [ 29.11.2020 21:36 ]  

Статус: проверено (by makkol at 29.11.2020 21:36)
Поблагодарили: 1 человек
Тип торрента: публичный - доступные источники с открытых трекеров: 
Размер: 11,31 GB (занимает 2,58 DVDR, для записи нужно 3 болванки DVDR/RW)
 
 
Похожие темы
Форум Тема Автор Торрент Отв. Посл. сооб.
Зарубежное кино [DVDRip, Low-Res HDRip, и т.д.] Дедушка НЕлегкого поведения / Где моя челюсть, чувак / War with Grandpa (Тим Хилл) [2020 г., комедия, семейный, WEB-DLRip] MVO (AlphaProject) makkol
23 | 0

1 | 807

56

29.08.2020 21:48

Зарубежное кино [DVDRip, Low-Res HDRip, и т.д.] Дедушка НЕлегкого поведения / Где моя челюсть, чувак / The War with Grandpa (Тим Хилл) [2020 г., комедия, семейный, HDRip] Dub (iTunes) makkol
2 | 0

0 | 426

9

29.11.2020 21:20

Зарубежное кино [DVDRip, Low-Res HDRip, и т.д.] Дедушка НЕлегкого поведения / Где моя челюсть, чувак / The War with Grandpa (Тим Хилл / Tim Hill) [2020 г., комедия, семейный, BDRip-AVC] Dub (iTunes) + Original (Eng) + Sub (Rus, Eng) 90ytr90
214 | 1

0 | 261

11

30.11.2020 08:55

Зарубежное кино [DVDRip, Low-Res HDRip, и т.д.] Дедушка НЕлегкого поведения / Где моя челюсть, чувак / The War with Grandpa (Тим Хилл / Tim Hill) [2020 г., комедия, семейный, BDRip] Dub (iTunes) + Original (Eng) 90ytr90
69 | 3

0 | 232

3

30.11.2020 08:56

Зарубежное кино [DVDRip, Low-Res HDRip, и т.д.] Дедушка НЕлегкого поведения / Где моя челюсть, чувак / The War with Grandpa (Тим Хилл / Tim Hill) [2020 г., комедия, семейный, BDRip-AVC] Dub (iTunes) + Sub (Rus, Eng) 90ytr90
71 | 4

0 | 296

14

01.12.2020 11:51

Зарубежное кино [DVD / HDDVD / BD / Remux] Дедушка НЕлегкого поведения / Где моя челюсть, чувак / The War with Grandpa (Тим Хилл) [2020 г., комедия, семейный, BD-Remux] Dub (iTunes) + Original + Sub makkol
27 | 0

0 | 530

11

29.11.2020 21:43

Зарубежное кино [HDDVDRip / BDRip / WEB-DL / HDTV 1080/720р] Дедушка НЕлегкого поведения / Где моя челюсть, чувак / War with Grandpa (Тим Хилл) [2020 г., комедия, семейный, WEB-DL 1080p] MVO (AlphaProject) makkol
38 | 0

1 | 860

59

29.08.2020 21:56

Зарубежное кино [HDDVDRip / BDRip / WEB-DL / HDTV 1080/720р] Дедушка НЕлегкого поведения / Где моя челюсть, чувак / The War with Grandpa (Тим Хилл) [2020 г., комедия, семейный, BDRip 720p] Dub (iTunes) + Original + Sub makkol
222 | 9

0 | 399

12

29.11.2020 21:29

Зарубежное кино [HDDVDRip / BDRip / WEB-DL / HDTV 1080/720р] Дедушка НЕлегкого поведения / Где моя челюсть, чувак / The War with Grandpa (Тим Хилл / Tim Hill) [2020 г., комедия, семейный, BDRip 1080p] Dub (iTunes) + Original (Eng) + Sub (Rus, Eng) 90ytr90
220 | 2

0 | 439

17

02.12.2020 18:27


Яндекс.Метрика powered by Sphinx


В Н И М А Н И Е
Сайт не распространяет и не хранит электронные версии произведений, а лишь бесплатно и без коммерческой выгоды (не требуя взамен платы,
SMS и т.д.) предоставляет доступ к создаваемому пользователями каталогу ссылок на торрент-файлы, которые содержат только списки хеш-сумм.
Убедительная просьба с жалобами обращаться напрямую к пользователю, разместившему торрент файл.

Вверх