Loading...
Error

Дедушка НЕлегкого поведения / Где моя челюсть, чувак / The War with Grandpa (Тим Хилл) [2020 г., комедия, семейный, HDRip] Dub (iTunes)

Статистика раздачи
Размер:  1,46 GB   |    Зарегистрирован:  3 месяца 7 дней   |    Скачан:  9 раз
Сидов:  1  |  0 KB/s  ]   Личеров:  0  |  0 KB/s  ]

* - сиды/пиры с внешних источников

   
 
Автор Сообщение

makkol Пол:Муж

29-Ноя-2020 21:20

Дедушка НЕлегкого поведения / Где моя челюсть, чувак / The War with Grandpa
«Бумер VS Зумер. Кто победит в этой схватке?»


Год выпуска: 2020
Жанр: комедия, семейный
Производство: США [Marro Films, Emmett/Furla/Oasis Films (EFO Films), TRI G]
Режиссер: Тим Хилл
В ролях: Роберт Де Ниро, Оакс Фигли, Кристофер Уокен, Ума Турман, Джейн Сеймур, Роб Риггл, Лора Марано, Колин Форд, Т.Дж. МакГиббон, Чич Марин
Сюжет фильма:
Пенсионер Эд подрался с охранником супермаркета, после чего по совету полиции дочь перевозит его в дом своей семьи. Сам он от переезда не в восторге, а его 12-летний внук Питер просто в бешенстве, ведь деду отдали его любимую комнату, а самого парня переселили на чердак. Не желая мириться с этой вопиющей несправедливостью и не думая о последствиях, мальчик объявляет дедуле войну. Но пенсионер оказывается не так прост, ведь он-то был на настоящей войне и как старый солдат готов нести потери.

  • Мировая премьера: 27 августа 2020
  • Российская премьера: 29 октября 2020


Качество видео: HDRip

Продолжительность: 01:38:10
Формат: AVI
Видео: XviD, 720x384 (1.85:1), 24.000 fps, 1738 kbps
Аудио: русский, дублированный (iTunes), AC3 5.1, 48 kHz, 384 kbps

Релиз:

Код:

Формат                                   : AVI
Формат/Информация                        : Audio Video Interleave
Размер файла                             : 1,46 Гбайт
Продолжительность                        : 1 ч. 38 м.
Общий поток                              : 2130 Кбит/сек
Название фильма                          : The.War.with.Grandpa.2020 1080p.BluRay.DTS.x264-iFT
Программа кодирования                    : VirtualDubMod 1.5.10.3 | www.virtualdub-fr.org || (build 2550/release)
Библиотека кодирования                   : VirtualDubMod build 2550/release

Видео
Идентификатор                            : 0
Формат                                   : MPEG-4 Visual
Профиль формата                          : Advanced [email protected]
Настройки формата                        : BVOP1
Параметр BVOP формата                    : 1
Параметр QPel формата                    : Нет
Параметр GMC формата                     : Без точки перехода
Параметр матрицы формата                 : Default (MPEG)
Идентификатор кодека                     : XVID
Идентификатор кодека/Подсказка           : XviD
Продолжительность                        : 1 ч. 38 м.
Битрейт                                  : 1738 Кбит/сек
Ширина                                   : 720 пикселей
Высота                                   : 384 пикселя
Соотношение сторон                       : 1,85:1
Частота кадров                           : 24,000 кадра/сек
Цветовое пространство                    : YUV
Субдискретизация насыщенности            : 4:2:0
Битовая глубина                          : 8 бит
Тип развёртки                            : Прогрессивная
Метод сжатия                             : С потерями
Бит/(Пиксели*Кадры)                      : 0.262
Размер потока                            : 1,19 Гбайт (82%)
Библиотека кодирования                   : XviD 67

Аудио
Идентификатор                            : 1
Формат                                   : AC-3
Формат/Информация                        : Audio Coding 3
Коммерческое название                    : Dolby Digital
Идентификатор кодека                     : 2000
Продолжительность                        : 1 ч. 37 м.
Вид битрейта                             : Постоянный
Битрейт                                  : 384 Кбит/сек
Каналы                                   : 6 каналов
ChannelLayout                            : L R C LFE Ls Rs
Частота                                  : 48,0 КГц
Частота кадров                           : 31,250 кадров/сек (1536 SPF)
Метод сжатия                             : С потерями
Размер потока                            : 269 Мбайт (18%)
Выравнивание                             : Разделение по промежуткам
Продолжительность промежутка             : 42  мс. (1,00 видеокадр)
Время предзагрузки промежутка            : 500  мс.
ServiceKind/String                       : Complete Main

Этот торрент недоступен для скачивания без регистрации, однако доступен по публичной magnet-ссылке (источники с публичных трекеров). Перед использованием ссылки прочтите, пожалуйста Пользовательское соглашение, а также как можно дольше оставайтесь на раздаче! Для того, чтобы скачать сам торрент-файл (который видит больше источников), а также для того, чтобы поблагодарить релизера, вам необходимо зарегистрироваться. Если регистрироваться лень - вы можете также попробовать скачать релиз по нашим партнерским ссылкам ниже. Кроме того, зарегистрированным пользователям не показывается всплывающая реклама при скачивании.

[underver.se].t190922.torrent
Трекер: Зарегистрирован   [ 29.11.2020 21:20 ]  

Статус: проверено (by makkol at 29.11.2020 21:21)
Поблагодарили: 1 человек
Тип торрента: публичный - доступные источники с открытых трекеров: 
Размер: 1,46 GB (занимает 0,33 DVDR, для записи нужно 1 болванка DVDR/RW)
 
 
Похожие темы
Форум Тема Автор Торрент Отв. Посл. сооб.
Зарубежное кино [DVDRip, Low-Res HDRip, и т.д.] Дедушка НЕлегкого поведения / Где моя челюсть, чувак / War with Grandpa (Тим Хилл) [2020 г., комедия, семейный, WEB-DLRip] MVO (AlphaProject) makkol
23 | 0

1 | 807

56

29.08.2020 21:48

Зарубежное кино [DVDRip, Low-Res HDRip, и т.д.] Дедушка НЕлегкого поведения / Где моя челюсть, чувак / The War with Grandpa (Тим Хилл / Tim Hill) [2020 г., комедия, семейный, BDRip-AVC] Dub (iTunes) + Original (Eng) + Sub (Rus, Eng) 90ytr90
214 | 1

0 | 261

11

30.11.2020 08:55

Зарубежное кино [DVDRip, Low-Res HDRip, и т.д.] Дедушка НЕлегкого поведения / Где моя челюсть, чувак / The War with Grandpa (Тим Хилл / Tim Hill) [2020 г., комедия, семейный, BDRip] Dub (iTunes) + Original (Eng) 90ytr90
69 | 3

0 | 232

3

30.11.2020 08:56

Зарубежное кино [DVDRip, Low-Res HDRip, и т.д.] Дедушка НЕлегкого поведения / Где моя челюсть, чувак / The War with Grandpa (Тим Хилл / Tim Hill) [2020 г., комедия, семейный, BDRip-AVC] Dub (iTunes) + Sub (Rus, Eng) 90ytr90
71 | 4

0 | 296

14

01.12.2020 11:51

Зарубежное кино [DVD / HDDVD / BD / Remux] Дедушка НЕлегкого поведения / Где моя челюсть, чувак / The War with Grandpa (Тим Хилл) [2020 г., комедия, семейный, BD-Remux] Dub (iTunes) + Original + Sub makkol
27 | 0

0 | 530

11

29.11.2020 21:43

Зарубежное кино [HDDVDRip / BDRip / WEB-DL / HDTV 1080/720р] Дедушка НЕлегкого поведения / Где моя челюсть, чувак / War with Grandpa (Тим Хилл) [2020 г., комедия, семейный, WEB-DL 1080p] MVO (AlphaProject) makkol
38 | 0

1 | 860

59

29.08.2020 21:56

Зарубежное кино [HDDVDRip / BDRip / WEB-DL / HDTV 1080/720р] Дедушка НЕлегкого поведения / Где моя челюсть, чувак / The War with Grandpa (Тим Хилл) [2020 г., комедия, семейный, BDRip 720p] Dub (iTunes) + Original + Sub makkol
222 | 9

0 | 399

12

29.11.2020 21:29

Зарубежное кино [HDDVDRip / BDRip / WEB-DL / HDTV 1080/720р] Дедушка НЕлегкого поведения / Где моя челюсть, чувак / The War with Grandpa (Тим Хилл) [2020 г., комедия, семейный, BDRip 1080p] Dub (iTunes) + Original + Sub makkol
163 | 7

0 | 404

15

29.11.2020 21:36

Зарубежное кино [HDDVDRip / BDRip / WEB-DL / HDTV 1080/720р] Дедушка НЕлегкого поведения / Где моя челюсть, чувак / The War with Grandpa (Тим Хилл / Tim Hill) [2020 г., комедия, семейный, BDRip 1080p] Dub (iTunes) + Original (Eng) + Sub (Rus, Eng) 90ytr90
220 | 2

0 | 439

17

02.12.2020 18:27


Яндекс.Метрика powered by Sphinx


В Н И М А Н И Е
Сайт не распространяет и не хранит электронные версии произведений, а лишь бесплатно и без коммерческой выгоды (не требуя взамен платы,
SMS и т.д.) предоставляет доступ к создаваемому пользователями каталогу ссылок на торрент-файлы, которые содержат только списки хеш-сумм.
Убедительная просьба с жалобами обращаться напрямую к пользователю, разместившему торрент файл.

Вверх